<?xml version="1.0" standalone="no"?>
<!DOCTYPE svg PUBLIC "-//W3C//DTD SVG 1.1//EN" "http://www.w3.org/Graphics/SVG/1.1/DTD/svg11.dtd" >
<svg xmlns="http://www.w3.org/2000/svg" xmlns:xlink="http://www.w3.org/1999/xlink" version="1.1">
<metadata>
Created by FontForge 20170731 at Thu Jan 26 18:25:52 2023
 By Aleksey,,,
Copyright (c) 2019 by Andrew Footit. All rights reserved.
</metadata>
<defs>
<font id="ModulusProEDO-ExtraLight" horiz-adv-x="1013" >
  <font-face 
    font-family="Modulus Pro EDO Extra Light"
    font-weight="200"
    font-stretch="normal"
    units-per-em="2048"
    panose-1="0 0 0 0 0 0 0 0 0 0"
    ascent="1638"
    descent="-410"
    x-height="956"
    cap-height="1438"
    bbox="-234.789 -473 2748 1798"
    underline-thickness="102"
    underline-position="-358"
    unicode-range="U+0020-25CA"
  />
<missing-glyph horiz-adv-x="1024" 
d="M840 1638v-2048h-650v2048h650zM342 -268h340v67h-209l143 97h66v67h-340v-67h143l-143 -97v-67zM342 10h340v232h-340v-232zM342 365h340v231h-205v-115h70v47h67v-96h-204v164h-68v-231zM342 641h340v205h-68v-135h-272v-70zM342 758h205v143h135v68h-340v-68h135v-76
h-135v-67zM342 1024h340v70h-135v143h-205v-213zM342 1290h340v68h-135v76h135v67h-338v-67h133v-76h-135v-68zM410 78v96h204v-96h-204zM410 1094v73h67v-73h-67z" />
    <glyph glyph-name=".notdef" horiz-adv-x="1024" 
d="M840 1638v-2048h-650v2048h650zM342 -268h340v67h-209l143 97h66v67h-340v-67h143l-143 -97v-67zM342 10h340v232h-340v-232zM342 365h340v231h-205v-115h70v47h67v-96h-204v164h-68v-231zM342 641h340v205h-68v-135h-272v-70zM342 758h205v143h135v68h-340v-68h135v-76
h-135v-67zM342 1024h340v70h-135v143h-205v-213zM342 1290h340v68h-135v76h135v67h-338v-67h133v-76h-135v-68zM410 78v96h204v-96h-204zM410 1094v73h67v-73h-67z" />
    <glyph glyph-name=".null" horiz-adv-x="0" 
 />
    <glyph glyph-name="nonmarkingreturn" horiz-adv-x="682" 
 />
    <glyph glyph-name="space" unicode=" " horiz-adv-x="655" 
 />
    <glyph glyph-name="space" unicode="&#xa0;" horiz-adv-x="655" 
 />
    <glyph glyph-name="exclam" unicode="!" horiz-adv-x="266" 
d="M133 0q-22 0 -36.5 15.5t-14.5 37.5t14.5 36.5t36.5 14.5t36.5 -14.5t14.5 -36.5t-14.5 -37.5t-36.5 -15.5zM109 205v1204q0 10 7.5 17.5t16.5 7.5q11 0 19 -7.5t8 -17.5v-1204q0 -10 -8 -17.5t-19 -7.5q-9 0 -16.5 7.5t-7.5 17.5z" />
    <glyph glyph-name="quotedbl" unicode="&#x22;" horiz-adv-x="393" 
d="M98 1227q-7 0 -12 9t-2 17l41 201q10 32 47 27q15 -2 25 -15.5t4 -35.5l-64 -189q-5 -11 -16.5 -15.5t-22.5 1.5zM233 1253l41 201q10 32 48 27q15 -2 24.5 -15.5t3.5 -35.5l-63 -189q-5 -11 -16.5 -15.5t-22.5 1.5q-7 0 -12.5 9t-2.5 17z" />
    <glyph glyph-name="numbersign" unicode="#" horiz-adv-x="1355" 
d="M41 467q0 9 8 17t17 8h276l90 440h-278q-9 0 -17 7.5t-8 16.5q0 10 7.5 17.5t17.5 9.5h288l88 432q7 24 31 21q22 -7 19 -31l-86 -422h495l88 432q1 10 10.5 16.5t18.5 4.5q23 -7 20 -31l-86 -422h250q10 0 17.5 -8t7.5 -19q0 -9 -7.5 -16.5t-17.5 -7.5h-260l-90 -440
h262q10 0 17.5 -8t7.5 -17q0 -11 -7.5 -19t-17.5 -8h-272l-86 -424q-3 -20 -25 -20q-13 0 -19.5 9t-4.5 22l84 413h-496l-86 -424q-3 -20 -25 -20q-13 0 -19.5 9t-4.5 22l84 413h-266q-8 0 -16.5 8.5t-8.5 18.5zM393 492h496l90 440h-496z" />
    <glyph glyph-name="dollar" unicode="$" horiz-adv-x="1228" 
d="M594 -106q-9 0 -17 7t-8 17v72q-94 4 -179 33t-144 71.5t-99 85.5t-63 84q-5 7 -2 18t12 15q22 11 33 -10q21 -37 57.5 -75t90 -77t131 -65.5t163.5 -30.5v686q-288 49 -397 195q-68 95 -47 225q10 56 43.5 108t87.5 95.5t135 69.5t178 26v63q0 10 8 17.5t17 7.5
q11 0 19 -7.5t8 -17.5v-63q71 -4 133.5 -26t108.5 -56.5t78.5 -69.5t57.5 -75q14 -21 -6 -35q-7 -5 -17.5 -3t-14.5 11q-125 188 -340 205v-629q118 -18 206.5 -52.5t140 -74.5t82.5 -90t40 -95.5t6 -95.5q-3 -52 -21 -102t-55.5 -98t-90.5 -84.5t-132.5 -59t-175.5 -24.5
v-72q0 -10 -8 -17t-19 -7zM174 1137q-13 -77 11 -139.5t80.5 -105.5t131.5 -71.5t172 -46.5v621q-86 0 -159 -22.5t-121 -60t-77.5 -82.5t-37.5 -93zM621 39q107 2 190.5 31.5t132.5 76.5t74.5 101.5t28.5 113.5q18 284 -426 355v-678z" />
    <glyph glyph-name="percent" unicode="%" horiz-adv-x="956" 
d="M86 0q-8 0 -12 2q-20 16 -8 35l761 1388q4 9 15 12.5t20 -1.5q21 -11 10 -33l-763 -1391q-6 -12 -23 -12zM61 1126q0 96 59.5 165t143.5 69q83 0 142 -69t59 -165q0 -97 -59 -165t-142 -68q-85 0 -144 68t-59 165zM111 1126q0 -76 45 -130t108 -54q62 0 107 54t45 130
q0 75 -45 129t-107 54q-63 0 -108 -54t-45 -129zM471 281q0 96 59.5 164.5t143.5 68.5q83 0 141.5 -68.5t58.5 -164.5q0 -97 -58.5 -165.5t-141.5 -68.5q-85 0 -144 68.5t-59 165.5zM522 281q0 -77 44.5 -131t107.5 -54t107 54t44 131q0 75 -44 128.5t-107 53.5
t-107.5 -53.5t-44.5 -128.5z" />
    <glyph glyph-name="ampersand" unicode="&#x26;" horiz-adv-x="1261" 
d="M573 -14q-128 0 -236.5 55t-174 152t-70.5 215q-6 152 60 269.5t221 235.5q-148 211 -80 359q31 69 92.5 114t136.5 56q106 15 212 -36.5t169 -148.5q7 -24 -8 -34q-7 -6 -17 -4t-14 12q-58 86 -151 131t-185 31q-60 -7 -113.5 -46.5t-78.5 -93.5q-16 -36 -19.5 -70.5
t15.5 -94.5t69 -132q61 -83 279 -348.5t281 -343.5q34 50 63 109.5t46 109t28.5 91t16.5 66.5l5 24q1 10 8.5 16t16.5 4q13 -1 19.5 -10t4.5 -19q0 -10 -15 -68t-59 -165.5t-102 -192.5q38 -43 83.5 -93.5t65.5 -73t21 -25.5q7 -6 6.5 -15.5t-8.5 -15.5q-9 -6 -20 -6
q-12 0 -17 8q-8 11 -157 180q-162 -202 -394 -202zM141 410q4 -159 129.5 -268t302.5 -109q210 0 361 192q-69 83 -265.5 324t-267.5 325q-147 -112 -208 -218.5t-52 -245.5z" />
    <glyph glyph-name="quotesingle" unicode="'" horiz-adv-x="202" 
d="M57 1262q-7 0 -12 9t-2 17l41 201q10 32 47 27q15 -2 25 -16t4 -36l-64 -188q-5 -11 -16.5 -15.5t-22.5 1.5z" />
    <glyph glyph-name="parenleft" unicode="(" horiz-adv-x="413" 
d="M328 -33q-11 0 -17 6q-115 110 -182.5 310.5t-67.5 433.5q0 223 62.5 418t171.5 307q6 7 17 7.5t18 -5.5q8 -8 8 -18t-8 -17q-100 -106 -158.5 -292.5t-58.5 -399.5q0 -223 62.5 -413.5t168.5 -293.5q17 -17 2 -35q-8 -8 -18 -8z" />
    <glyph glyph-name="parenright" unicode=")" horiz-adv-x="413" 
d="M86 -33q-10 0 -18 8q-15 18 2 35q106 103 168.5 293.5t62.5 413.5q0 213 -58.5 399.5t-158.5 292.5q-8 7 -8 17t8 18q7 6 18 5.5t17 -7.5q108 -112 170.5 -306.5t62.5 -418.5q0 -233 -67.5 -433.5t-182.5 -310.5q-6 -6 -16 -6z" />
    <glyph glyph-name="asterisk" unicode="*" horiz-adv-x="520" 
d="M233 1071v125l-133 -84q-15 -9 -29 -3t-14 19t19 27l135 90l-135 80q-16 9 -15 23t13 19t26 -1l133 -78v123q0 16 12.5 23t25 0.5t12.5 -23.5v-123l137 78q20 16 34 0q13 -17 -6 -36q-3 -3 -6 -5l-133 -80l137 -90q18 -12 16.5 -28t-16 -20.5t-32.5 5.5l-131 84v-125
q0 -19 -12.5 -26.5t-25 0.5t-12.5 26z" />
    <glyph glyph-name="plus" unicode="+" horiz-adv-x="880" 
d="M125 682q-8 0 -15.5 8.5t-7.5 18.5q0 9 7.5 16.5t15.5 7.5h293v289q0 8 6.5 15t17.5 7q9 0 16 -7t7 -15v-289h291q10 0 16 -7t6 -17q0 -11 -6 -19t-16 -8h-291v-291q0 -10 -7 -16t-16 -6q-24 0 -24 22v291h-293z" />
    <glyph glyph-name="comma" unicode="," horiz-adv-x="225" 
d="M43 -133q-8 2 -11 11.5t1 17.5l76 190q15 28 51 18q14 -5 20 -18.5t-2 -36.5l-96 -174q-6 -11 -18 -13t-21 5z" />
    <glyph glyph-name="hyphen" unicode="-" horiz-adv-x="804" 
d="M82 604q0 9 7 17t17 8h592q10 0 17.5 -8t7.5 -17q0 -11 -7.5 -18.5t-17.5 -7.5h-592q-10 0 -17 7.5t-7 18.5z" />
    <glyph glyph-name="period" unicode="." horiz-adv-x="274" 
d="M137 -2q-23 0 -39 17t-16 40t16 39.5t39 16.5t39.5 -16.5t16.5 -39.5t-16.5 -40t-39.5 -17z" />
    <glyph glyph-name="slash" unicode="/" horiz-adv-x="454" 
d="M350 1438q7 23 31 20q21 -7 18 -31l-288 -1419q-3 -20 -25 -20q-13 0 -20 8.5t-5 21.5z" />
    <glyph glyph-name="zero" unicode="0" horiz-adv-x="1392" 
d="M696 -8q-174 0 -320 96.5t-230.5 263.5t-84.5 365t84.5 365t230.5 263.5t320 96.5t320 -96.5t230.5 -263.5t84.5 -365t-84.5 -365t-230.5 -263.5t-320 -96.5zM109 717q0 -186 78 -341.5t213 -245t296 -89.5t296 90t212.5 245t77.5 341t-77.5 341t-212.5 245t-296 90
t-296 -89.5t-213 -245t-78 -341.5z" />
    <glyph glyph-name="one" unicode="1" horiz-adv-x="393" 
d="M266 0q-10 0 -17 7t-7 18v1345l-125 -55q-9 -4 -18.5 -0.5t-14.5 12.5q-8 23 12 33l160 70q12 6 25 0q10 -10 10 -23v-1382q0 -11 -7.5 -18t-17.5 -7z" />
    <glyph glyph-name="two" unicode="2" horiz-adv-x="1155" 
d="M147 0q-15 0 -22 14q-8 15 4 27q2 3 177.5 196.5t358 394t197.5 218.5q65 78 76 175.5t-35 188.5q-47 92 -137.5 140t-202.5 41q-276 -21 -395 -262q-4 -9 -14 -12.5t-19 -0.5q-9 4 -12 15t2 20q131 265 434 289q126 9 229.5 -46t157.5 -161q52 -103 39.5 -216.5
t-86.5 -201.5q-13 -16 -152.5 -170.5t-313.5 -346t-230 -253.5h805q9 0 16.5 -7t7.5 -17t-7.5 -17.5t-16.5 -7.5h-861z" />
    <glyph glyph-name="three" unicode="3" horiz-adv-x="1015" 
d="M436 -6q-126 0 -236 54t-175 147q-13 19 6 34q20 13 35 -6q57 -83 156.5 -131.5t213.5 -48.5q177 0 302.5 105.5t125.5 254.5t-126.5 254t-303.5 105q-28 0 -28 26q0 25 28 25q145 6 244.5 89.5t99.5 199.5q0 120 -107 204.5t-259 84.5q-162 0 -273 -97q-7 -6 -18 -5.5
t-17 7.5t-5.5 18t7.5 17q58 52 138.5 80.5t167.5 28.5q113 0 208.5 -45.5t151 -123t55.5 -169.5q0 -101 -68 -185t-177 -124q146 -40 238.5 -147.5t92.5 -242.5q0 -111 -64 -205t-174 -149t-239 -55z" />
    <glyph glyph-name="four" unicode="4" horiz-adv-x="1140" 
d="M86 319q-13 0 -20 11q-8 12 -5 20l246 1069q7 22 31 19q21 -7 18 -31l-239 -1036h667v520q0 9 8.5 16.5t18.5 7.5q9 0 17 -7.5t8 -16.5v-520h219q10 0 17 -8t7 -19q0 -9 -7 -17t-17 -8h-219v-294q0 -10 -8 -17.5t-17 -7.5q-11 0 -19 7.5t-8 17.5v294h-698z" />
    <glyph glyph-name="five" unicode="5" horiz-adv-x="1079" 
d="M498 -6q-144 0 -265.5 68.5t-189.5 187.5q-11 22 10 33q8 6 18 3t15 -12q60 -107 170.5 -169t241.5 -62q189 0 318.5 122.5t129.5 299.5q0 182 -125.5 290.5t-335.5 108.5h-301q-11 0 -18 10q-7 11 -4 21l129 522q3 19 24 19h482q10 0 17 -7t7 -18q0 -9 -7 -17t-17 -8
h-461l-119 -473h268q232 0 372 -122t140 -326q0 -198 -145 -334.5t-354 -136.5z" />
    <glyph glyph-name="six" unicode="6" horiz-adv-x="1142" 
d="M571 -6q-138 0 -255.5 68.5t-186 186t-68.5 255.5q0 161 97 299l407 624q16 20 35 7q8 -5 10 -15t-4 -18l-301 -463q121 76 266 76q139 0 256.5 -68.5t185.5 -186t68 -255.5t-68 -255.5t-185.5 -186t-256.5 -68.5zM113 504q0 -191 134 -326t324 -135q125 0 231 62
t168 168t62 231t-62 231t-168 168t-231 62q-190 0 -324 -135t-134 -326z" />
    <glyph glyph-name="seven" unicode="7" horiz-adv-x="1044" 
d="M174 -2q-8 0 -12 4q-21 11 -10 33l745 1349h-831q-25 0 -25 25q0 11 7.5 18t17.5 7h874q14 0 21 -13q6 -12 0 -26l-766 -1385q-6 -12 -21 -12z" />
    <glyph glyph-name="eight" unicode="8" horiz-adv-x="1112" 
d="M555 -8q-100 0 -191 35.5t-157.5 95t-106 142t-39.5 173.5q0 150 99 268.5t254 161.5q-84 36 -135.5 109.5t-51.5 161.5q0 126 96.5 214.5t231.5 88.5q136 0 232 -88.5t96 -214.5q0 -88 -51 -161.5t-134 -109.5q155 -43 254 -161.5t99 -268.5q0 -184 -146 -315t-350 -131
zM111 438q0 -164 130.5 -280.5t313.5 -116.5q185 0 315.5 116.5t130.5 280.5q0 109 -60 201t-162.5 145.5t-223.5 53.5q-120 0 -222.5 -53.5t-162 -145.5t-59.5 -201zM279 1139q0 -103 80.5 -177.5t195.5 -74.5q116 0 198.5 74.5t82.5 177.5q0 105 -82 179.5t-199 74.5
q-115 0 -195.5 -74.5t-80.5 -179.5z" />
    <glyph glyph-name="nine" unicode="9" horiz-adv-x="1112" 
d="M557 453q-205 0 -350.5 144.5t-145.5 348.5q0 134 66.5 248t180.5 181t249 67q134 0 247.5 -67t180 -181t66.5 -248q0 -133 -68 -250q0 -1 -1 -2t-1 -2l-432 -684q-12 -17 -33 -8q-9 4 -11 15t3 18l311 495q-121 -75 -262 -75zM111 946q0 -184 130.5 -314t315.5 -130
q116 0 215 55t158 148l6 10q65 108 65 231q0 185 -130 316t-314 131t-315 -131t-131 -316z" />
    <glyph glyph-name="colon" unicode=":" horiz-adv-x="266" 
d="M133 -2q-23 0 -39 17t-16 40t16 39.5t39 16.5t39 -16.5t16 -39.5t-16 -40t-39 -17zM78 764q0 23 16 39t39 16t39 -16t16 -39t-16 -40t-39 -17t-39 17t-16 40z" />
    <glyph glyph-name="semicolon" unicode=";" horiz-adv-x="256" 
d="M23 -133q-8 2 -11.5 11.5t0.5 17.5l76 190q8 16 24.5 20t26.5 -2q14 -5 20.5 -18.5t-1.5 -36.5l-97 -174q-6 -11 -17.5 -13t-20.5 5zM84 764q0 23 16 39t39 16t39.5 -16t16.5 -39t-16.5 -40t-39.5 -17t-39 17t-16 40z" />
    <glyph glyph-name="less" unicode="&#x3c;" horiz-adv-x="659" 
d="M571 274q-5 0 -16 7l-479 321q-15 11 -15 27q0 9 13 18l481 338q20 11 37 -6q8 -9 6 -21t-12 -18l-449 -311l449 -303q9 -5 11 -17.5t-5 -23.5q-11 -11 -21 -11z" />
    <glyph glyph-name="equal" unicode="=" horiz-adv-x="880" 
d="M125 514q-8 0 -15.5 8.5t-7.5 18.5q0 9 7.5 16.5t15.5 7.5h631q10 0 16 -7t6 -17q0 -11 -6 -19t-16 -8h-631zM102 827q0 9 7.5 16t15.5 7h631q10 0 16 -7t6 -16q0 -24 -22 -24h-631q-8 0 -15.5 6.5t-7.5 17.5z" />
    <glyph glyph-name="greater" unicode="&#x3e;" horiz-adv-x="659" 
d="M88 274q-9 0 -20 11q-7 11 -5 23.5t11 17.5l448 303l-448 311q-10 6 -12 18t6 21q17 17 36 6l482 -338q12 -8 12 -18q0 -17 -14 -27l-480 -321q-11 -7 -16 -7z" />
    <glyph glyph-name="question" unicode="?" horiz-adv-x="976" 
d="M449 0q-22 0 -37 15.5t-15 37.5t15 36.5t37 14.5t36.5 -14.5t14.5 -36.5t-14.5 -37.5t-36.5 -15.5zM84 1153q-3 -9 1.5 -18.5t14.5 -12.5q9 -3 19.5 3t11.5 16q9 26 20.5 50t38.5 59.5t61 61.5t91.5 47.5t126.5 26.5q68 5 128.5 -12.5t103 -50.5t72.5 -72t46 -82
q23 -54 26.5 -110.5t-22.5 -119.5t-84 -110q-126 -104 -175 -159q-116 -131 -138 -313q-6 -50 -6 -107q0 -10 7.5 -17.5t18.5 -7.5q12 0 19.5 7t7.5 18q0 62 8.5 116t19.5 95t35.5 82.5t44 68.5t57.5 64t63 58t73 61q87 68 112 176.5t-18 216.5q-51 122 -160 189.5
t-243 58.5q-141 -10 -242.5 -85.5t-138.5 -197.5z" />
    <glyph glyph-name="at" unicode="@" horiz-adv-x="1609" 
d="M821 -23q-181 0 -341 83.5t-264.5 230.5t-127.5 327q-20 160 25 310.5t151 271.5q104 118 249 184t302 68h4q164 -2 304 -56t235 -155q183 -195 168 -491q-5 -66 -18 -153t-27 -130q-25 -76 -80 -109.5t-115 -25.5q-61 10 -103.5 58.5t-45.5 131.5q-60 -106 -167 -171.5
t-229 -65.5q-167 0 -282 121q-111 123 -99 296q15 172 147 293t304 121q171 0 285 -123q48 -51 73 -121q20 91 52 134q6 8 16 10t18 -4q21 -14 7 -35q-38 -55 -58 -192.5t-18 -258.5q1 -66 33 -103t73 -42q42 -7 83 19t59 83q27 77 41 271q15 278 -154 450
q-90 96 -219.5 147.5t-282.5 51.5h-2q-147 -1 -282 -63.5t-232 -172.5q-99 -115 -142 -253.5t-24 -288.5q22 -171 124 -310t257.5 -215.5t329.5 -70.5q113 6 205 41q10 3 19.5 -1.5t12.5 -13.5q7 -25 -14 -32q-54 -19 -116.5 -30.5t-90.5 -13.5t-43 -2zM410 698
q-12 -149 86 -258q93 -104 245 -104q151 0 265 104.5t137 241.5q0 17 4 49q3 131 -90 230q-93 104 -246 104q-152 0 -270 -107.5t-131 -259.5z" />
    <glyph glyph-name="A" unicode="A" horiz-adv-x="1378" 
d="M88 14q-7 -14 -21 -14t-22.5 10.5t-1.5 24.5l623 1386q6 14 20.5 14.5t22.5 -14.5l626 -1386q7 -13 -2.5 -24.5t-22.5 -11t-20 14.5l-196 439h-813zM305 502h766l-385 848z" />
    <glyph glyph-name="B" unicode="B" horiz-adv-x="1257" 
d="M168 0q-9 0 -17 7.5t-8 17.5v1382v2q0 10 8 17.5t17 7.5h494q152 0 260 -108.5t108 -262.5q0 -102 -50.5 -187.5t-135.5 -136.5q143 -9 242.5 -115.5t99.5 -252.5q0 -154 -108.5 -262.5t-262.5 -108.5h-647zM195 49h620q132 0 227 94.5t95 227.5q0 132 -95 225.5
t-227 93.5h-620v-641zM195 743h467q132 0 225.5 94t93.5 226q0 133 -93.5 227t-225.5 94h-467v-641z" />
    <glyph glyph-name="C" unicode="C" horiz-adv-x="1333" 
d="M811 -12q-197 0 -365 98t-266 266.5t-98 366.5q0 196 98 363.5t266 265.5t365 98q228 0 408 -125q19 -13 8 -35q-6 -8 -16.5 -10t-18.5 4q-172 117 -381 117q-138 0 -263.5 -54t-216.5 -145t-144.5 -216.5t-53.5 -262.5q0 -138 53.5 -264.5t144.5 -218t216.5 -145.5
t263.5 -54q220 0 401 133q21 14 35 -6q6 -8 5 -18.5t-9 -16.5q-195 -141 -432 -141z" />
    <glyph glyph-name="D" unicode="D" horiz-adv-x="1345" 
d="M567 1434q146 0 279 -56.5t229 -152.5t152.5 -229t56.5 -279q0 -145 -56.5 -277.5t-152.5 -229t-229 -153.5t-279 -57h-397q-12 0 -19.5 7.5t-7.5 19.5v1380v6q0 8 8 14.5t19 6.5h397zM190 53l377 -6q183 0 337.5 90.5t243.5 244.5t89 335q0 137 -52.5 261t-142 213
t-214 142t-261.5 53h-377v-1333z" />
    <glyph glyph-name="E" unicode="E" horiz-adv-x="1130" 
d="M1022 49q11 0 19 -7t8 -17t-8 -17.5t-19 -7.5h-854q-9 0 -17 7.5t-8 17.5v1384q0 9 8 17t17 8h854q10 0 18.5 -8t8.5 -17q0 -10 -8 -17.5t-19 -7.5h-829v-643h729q9 0 16.5 -7t7.5 -17t-7.5 -17.5t-16.5 -7.5h-729v-643h829z" />
    <glyph glyph-name="F" unicode="F" horiz-adv-x="1120" 
d="M168 0q-10 0 -17.5 7t-7.5 18v1382q0 11 7.5 19t17.5 8h868q9 0 16 -8t7 -19q0 -9 -7 -16t-16 -7h-843v-643h753q10 0 17.5 -7.5t7.5 -16.5q0 -11 -7.5 -18t-17.5 -7h-753v-667q0 -11 -7.5 -18t-17.5 -7z" />
    <glyph glyph-name="G" unicode="G" horiz-adv-x="1349" 
d="M811 -12q-198 0 -366 97.5t-265.5 264.5t-97.5 363q0 148 57.5 283t155.5 233t233 155.5t283 57.5q215 0 406 -123q7 -4 10 -17t-2 -20q-19 -19 -35 -6q-170 115 -379 115q-138 0 -263.5 -53.5t-216.5 -144t-144.5 -216t-53.5 -264.5q0 -137 53.5 -262t144.5 -216.5
t216.5 -145.5t263.5 -54q206 0 389 127v526h-448q-9 0 -16 7.5t-7 17.5q0 11 7 19.5t16 8.5h473q9 0 15.5 -8.5t6.5 -19.5v-566q0 -13 -10 -18q-187 -141 -426 -141z" />
    <glyph glyph-name="H" unicode="H" horiz-adv-x="1314" 
d="M1147 1436q9 0 16.5 -8.5t7.5 -18.5v-1384q0 -12 -7.5 -19.5t-16.5 -7.5q-11 0 -19 7.5t-8 19.5v659h-925v-659q0 -12 -8 -19.5t-19 -7.5t-18 7.5t-7 19.5v1384q0 11 7.5 19t17.5 8t18.5 -8t8.5 -19v-674h925v674q0 11 8 19t19 8z" />
    <glyph glyph-name="I" unicode="I" horiz-adv-x="296" 
d="M147 -2q-9 0 -16.5 7.5t-7.5 17.5v1390q0 10 7.5 17.5t16.5 7.5q11 0 19 -7.5t8 -17.5v-1390q0 -10 -8 -17.5t-19 -7.5z" />
    <glyph glyph-name="J" unicode="J" horiz-adv-x="1210" 
d="M549 0q-145 0 -268 71.5t-195 192.5q-13 26 8 37q22 11 35 -12q66 -109 177.5 -174.5t242.5 -65.5q133 0 245.5 65.5t178 178.5t65.5 246v847h-491q-11 0 -18 7t-7 18q0 9 7.5 17t17.5 8h516q10 0 17 -8t7 -17v-872q0 -146 -72 -270t-196 -196.5t-270 -72.5z" />
    <glyph glyph-name="K" unicode="K" horiz-adv-x="1142" 
d="M1096 41q7 -8 6.5 -18.5t-8.5 -16.5q-6 -6 -17 -6q-10 0 -18 8l-631 731l-256 -284v-430q0 -11 -7 -18t-18 -7q-10 0 -17 7t-7 18v1384q0 11 7 18t17 7q11 0 18 -7t7 -18v-881l825 897q6 7 17 7.5t18 -5.5q16 -16 2 -34l-573 -617z" />
    <glyph glyph-name="L" unicode="L" horiz-adv-x="1124" 
d="M166 0q-9 0 -16 7t-7 16v1388q0 9 7 16t16 7q11 0 19 -7t8 -16v-1362h847q23 0 23 -26q0 -9 -7 -16t-16 -7h-874z" />
    <glyph glyph-name="M" unicode="M" horiz-adv-x="1726" 
d="M168 0q-9 0 -17 7.5t-8 17.5v1386q0 17 19 25q15 6 26 -9l676 -921l674 921q15 15 29 9q16 -6 16 -25v-1386q0 -11 -7 -18t-17 -7q-9 0 -17 7.5t-8 17.5v1310l-649 -884q-7 -11 -20 -11t-21 11l-649 884v-1310q0 -10 -8 -17.5t-19 -7.5z" />
    <glyph glyph-name="N" unicode="N" horiz-adv-x="1415" 
d="M166 0q-9 0 -16 7.5t-7 19.5v1384q0 8 5 15t12 8q15 6 28 -7l1035 -1329v1313q0 10 6.5 17.5t15.5 7.5q12 0 19.5 -7t7.5 -18v-1384q0 -22 -17 -25q-2 -2 -10 -2q-11 0 -18 10l-1034 1327v-1310q0 -12 -7.5 -19.5t-19.5 -7.5z" />
    <glyph glyph-name="O" unicode="O" horiz-adv-x="1628" 
d="M815 -12q-148 0 -284 58t-234 156t-156.5 233.5t-58.5 283.5t58.5 283.5t156.5 233.5t234 156t284 58q197 0 365.5 -98t267 -266.5t98.5 -366.5t-98.5 -366.5t-267 -266.5t-365.5 -98zM133 719q0 -111 34.5 -214.5t97.5 -187.5t146.5 -147.5t188 -98t215.5 -34.5
q138 0 264 54t217 145.5t145 218t54 264.5t-54 264.5t-145 218t-217 145.5t-264 54q-111 0 -215.5 -34.5t-188 -98t-146.5 -147.5t-97.5 -187.5t-34.5 -214.5z" />
    <glyph glyph-name="P" unicode="P" horiz-adv-x="1302" 
d="M770 1434q186 0 318.5 -132.5t132.5 -318.5t-132.5 -318.5t-318.5 -132.5h-598v-507q0 -10 -8 -17.5t-17 -7.5q-10 0 -17 7t-7 18v1384q0 9 7 17t17 8h623zM172 582h598q166 0 283.5 117.5t117.5 283.5t-117.5 282.5t-283.5 116.5h-598v-800z" />
    <glyph glyph-name="Q" unicode="Q" horiz-adv-x="1630" 
d="M1485 33q13 -20 -4 -37q-6 -6 -15 -6q-11 0 -18 10l-148 168q-99 -87 -224 -135.5t-261 -48.5q-148 0 -284 58.5t-234 156.5t-156.5 234t-58.5 284t58.5 284t156.5 234t234 156.5t284 58.5t284 -58.5t234 -156.5t156.5 -234t58.5 -284q0 -146 -56 -279t-155 -235z
M133 717q0 -139 54 -265.5t145 -217.5t217.5 -145t265.5 -54q259 0 453 170l-205 237q-6 8 -5 18.5t9 16.5q18 15 35 -2l201 -233q93 93 143.5 215.5t50.5 259.5q0 139 -54 265.5t-145 217.5t-217.5 145t-265.5 54t-265.5 -54t-217.5 -145t-145 -217.5t-54 -265.5z" />
    <glyph glyph-name="R" unicode="R" horiz-adv-x="1304" 
d="M147 0q-10 0 -17 7t-7 18v1384q0 11 7 18t17 7h625q185 0 317 -132t132 -319q0 -182 -128 -312.5t-309 -135.5l430 -494q6 -7 5.5 -18t-7.5 -17q-6 -6 -16 -6q-13 0 -18 8l-459 527h-547v-510q0 -10 -8 -17.5t-17 -7.5zM172 584h600q165 0 282 117t117 282
q0 166 -117.5 283.5t-281.5 117.5h-600v-800z" />
    <glyph glyph-name="S" unicode="S" horiz-adv-x="1177" 
d="M602 -10q-101 0 -192 27.5t-154 71t-105.5 88t-66.5 87.5q-5 7 -2 18t12 15q22 11 33 -10q22 -39 61 -78.5t97 -79.5t141 -65t176 -25q112 0 199.5 28.5t138.5 76.5t77.5 103t29.5 115q9 145 -102.5 234t-342.5 123q-318 49 -430 201q-68 95 -47 225q11 59 47 113
t94.5 98.5t147.5 68.5t194 19q251 -10 391 -227q14 -21 -6 -35q-7 -5 -17.5 -3t-14.5 11q-131 195 -357 205q-182 8 -296.5 -70.5t-133.5 -187.5q-14 -82 13.5 -146.5t90.5 -107.5t144.5 -71t187.5 -44q120 -18 210.5 -52t143.5 -74t84.5 -91t41 -97t6.5 -96
q-3 -53 -21.5 -103.5t-57.5 -99t-94 -85t-138 -58.5t-183 -22z" />
    <glyph glyph-name="T" unicode="T" horiz-adv-x="1206" 
d="M1100 1434q9 0 16.5 -7.5t7.5 -17.5t-7.5 -17.5t-16.5 -7.5h-473v-1359q0 -11 -7.5 -18t-17.5 -7q-9 0 -16.5 7.5t-7.5 17.5v1359h-472q-10 0 -17 7t-7 18t7 18t17 7h994z" />
    <glyph glyph-name="U" unicode="U" horiz-adv-x="1380" 
d="M690 -6q-154 0 -284.5 76.5t-206.5 207t-76 283.5v850q0 11 7 18t17 7q11 0 18 -7t7 -18v-850q0 -140 69.5 -259.5t189 -189t259.5 -69.5q141 0 260 69.5t187.5 189t68.5 259.5v850q0 10 8 17.5t19 7.5q9 0 16.5 -7.5t7.5 -17.5v-850q0 -153 -76 -283.5t-206.5 -207
t-284.5 -76.5z" />
    <glyph glyph-name="V" unicode="V" horiz-adv-x="1406" 
d="M707 0q-16 0 -23 14l-621 1381q-7 22 15 32q9 4 18.5 0.5t12.5 -12.5l598 -1329l591 1329q5 9 14.5 12.5t18.5 -0.5q9 -3 13 -13t-1 -19l-614 -1381q-7 -14 -22 -14z" />
    <glyph glyph-name="W" unicode="W" horiz-adv-x="1961" 
d="M1884 1438q9 -3 13.5 -12.5t0.5 -18.5l-507 -1391q-6 -16 -25 -16q-17 0 -23 16l-362 920l-363 -920q-6 -16 -22 -16q-19 0 -25 16l-508 1391q-4 9 1 18.5t14 12.5q24 7 31 -17l489 -1325l360 916q3 9 12.5 13t18.5 1q12 -6 15 -14l360 -916l489 1325q3 10 12.5 15
t18.5 2z" />
    <glyph glyph-name="X" unicode="X" horiz-adv-x="1247" 
d="M1182 39q6 -8 5 -17.5t-9 -15.5q-6 -6 -15 -6q-13 0 -20 10l-518 672l-521 -672q-7 -10 -18 -10q-10 0 -16 6q-8 6 -9 15.5t5 17.5l526 684l-526 682q-14 17 4 35q21 14 34 -6l521 -672l518 672q6 9 17 10.5t18 -4.5q18 -18 4 -35l-527 -682z" />
    <glyph glyph-name="Y" unicode="Y" horiz-adv-x="1236" 
d="M1163 1430q19 -13 8 -35l-526 -838l-2 -532q0 -10 -8 -17.5t-17 -7.5q-10 0 -17 7t-7 18l2 532l-530 838q-6 9 -3.5 19t11.5 16q7 5 17.5 2.5t14.5 -11.5l515 -811l507 811q15 19 35 9z" />
    <glyph glyph-name="Z" unicode="Z" horiz-adv-x="1384" 
d="M1257 49q9 0 17 -7t8 -17t-8 -17.5t-17 -7.5h-1130q-16 0 -23 14q-7 15 2 27l1049 1343h-1001q-10 0 -17.5 7t-7.5 18t7.5 18t17.5 7h1052q14 0 21 -15q7 -14 -2 -26l-1049 -1344h1081z" />
    <glyph glyph-name="bracketleft" unicode="[" horiz-adv-x="305" 
d="M86 -41q-9 0 -17 7.5t-8 17.5v1466q0 9 8 17t17 8h133q9 0 17 -8t8 -17q0 -10 -8 -18.5t-17 -8.5h-106v-1415h106q9 0 17 -7t8 -17t-8 -17.5t-17 -7.5h-133z" />
    <glyph glyph-name="backslash" unicode="\" horiz-adv-x="460" 
d="M399 18q2 -13 -4.5 -21.5t-19.5 -8.5q-22 0 -25 20l-289 1419q-3 24 19 31q24 3 31 -20z" />
    <glyph glyph-name="bracketright" unicode="]" horiz-adv-x="305" 
d="M86 -41q-9 0 -17 7.5t-8 17.5t8 17t17 7h107v1415h-107q-9 0 -17 8.5t-8 18.5q0 9 8 17t17 8h133q9 0 17 -8t8 -17v-1466q0 -10 -8 -17.5t-17 -7.5h-133z" />
    <glyph glyph-name="asciicircum" unicode="^" horiz-adv-x="626" 
d="M125 1004q-8 -13 -21.5 -13t-19 10t1.5 25l213 399q6 11 20.5 11.5t20.5 -11.5l203 -403q10 -17 -8 -28q-19 -11 -31 8l-2 4l-183 360z" />
    <glyph glyph-name="underscore" unicode="_" horiz-adv-x="866" 
d="M82 -49q0 9 7 16.5t17 7.5h654q10 0 17 -7.5t7 -16.5q0 -11 -7 -19t-17 -8h-654q-10 0 -17 8t-7 19z" />
    <glyph glyph-name="grave" unicode="`" horiz-adv-x="243" 
d="M68 1587q-10 24 0 40.5t32 16t33 -21.5l55 -133q7 -13 -1.5 -23.5t-22.5 -10t-21 14.5z" />
    <glyph glyph-name="a" unicode="a" horiz-adv-x="1132" 
d="M557 -6q-132 0 -243.5 65t-176.5 176.5t-65 243.5q0 131 65 242.5t176.5 176.5t243.5 65q131 0 242 -65t176 -176.5t65 -242.5v-8v-2v-446q0 -10 -6.5 -16.5t-15.5 -6.5q-10 0 -17.5 6.5t-7.5 16.5v247q-59 -125 -176 -200.5t-260 -75.5zM121 479q0 -181 127.5 -308.5
t308.5 -127.5t308.5 127.5t127.5 308.5t-127.5 308.5t-308.5 127.5t-308.5 -127.5t-127.5 -308.5z" />
    <glyph glyph-name="b" unicode="b" horiz-adv-x="1132" 
d="M586 963q132 0 243.5 -65t176.5 -177t65 -244q0 -131 -65 -242t-176.5 -176t-243.5 -65q-131 0 -242.5 65t-176.5 176t-65 242v8v2v924q0 10 7 16.5t16 6.5q10 0 17.5 -6.5t7.5 -16.5v-725q60 125 177 201t259 76zM150 477q0 -181 127 -308.5t309 -127.5t309 127.5
t127 308.5t-127 308.5t-309 127.5t-309 -127.5t-127 -308.5z" />
    <glyph glyph-name="c" unicode="c" horiz-adv-x="937" 
d="M559 -6q-133 0 -245 65t-177 177t-65 245q0 201 142.5 344.5t344.5 143.5q167 0 297 -103q9 -6 10.5 -17t-4.5 -18q-6 -8 -16.5 -9t-18.5 5q-123 93 -268 93q-181 0 -309.5 -129.5t-128.5 -309.5q0 -181 128.5 -309.5t309.5 -128.5q146 0 268 92q17 14 35 -4
q6 -7 4.5 -18t-10.5 -17q-129 -102 -297 -102z" />
    <glyph glyph-name="d" unicode="d" horiz-adv-x="1132" 
d="M547 963q142 0 259 -76t177 -201v725q0 10 7.5 16.5t17.5 6.5q9 0 15.5 -6.5t6.5 -16.5v-924v-2v-8q0 -199 -142 -341t-341 -142q-132 0 -244 65t-177 176t-65 242q0 99 38.5 189t103.5 155t155 103.5t189 38.5zM111 477q0 -181 127.5 -308.5t308.5 -127.5t308.5 127.5
t127.5 308.5t-127.5 308.5t-308.5 127.5t-308.5 -127.5t-127.5 -308.5z" />
    <glyph glyph-name="e" unicode="e" horiz-adv-x="1103" 
d="M520 4q-194 17 -321 153t-127 326q0 198 141 339t340 141q130 0 240.5 -64.5t174.5 -175t64 -240.5q0 -9 -7.5 -16.5t-16.5 -7.5h-887q9 -163 120.5 -276t282.5 -130q243 -28 404 148q6 6 16.5 6.5t18.5 -6.5q17 -14 2 -33q-81 -96 -196.5 -135.5t-248.5 -28.5zM121 508
h862q-11 170 -135 288.5t-295 118.5t-296 -119t-136 -288z" />
    <glyph glyph-name="f" unicode="f" horiz-adv-x="679" 
d="M127 0q-11 0 -18 7t-7 18v919q0 105 27.5 189.5t72.5 139.5t105.5 92t123 53t128.5 16h35q10 0 17 -7t7 -18t-7 -18t-17 -7l-35 -2q-60 0 -116 -13.5t-109 -45t-92 -78.5t-63.5 -120t-26.5 -164h372q9 0 17 -7.5t8 -17.5t-8 -17.5t-17 -7.5h-372v-886q0 -11 -7 -18
t-18 -7z" />
    <glyph glyph-name="g" unicode="g" horiz-adv-x="1138" 
d="M555 -4q-199 0 -341 142t-142 341q0 198 142 340t341 142q130 0 241 -65t175.5 -176t64.5 -241v-407q0 -190 -127.5 -327t-324.5 -157q-9 0 -33.5 -1t-38.5 -1q-167 0 -291 95q-19 13 -6 30q6 9 16.5 11t18.5 -5q137 -100 332 -77q178 17 290.5 138t112.5 294v190
q-61 -120 -176.5 -193t-253.5 -73zM121 479q0 -180 127 -306t307 -126q179 0 304.5 126t125.5 306q0 179 -126 305.5t-304 126.5q-180 0 -307 -126.5t-127 -305.5z" />
    <glyph glyph-name="h" unicode="h" horiz-adv-x="1024" 
d="M127 0q-11 0 -18 7t-7 18v1384q0 11 7 18t18 7t18 -7t7 -18v-659q53 98 151 157.5t215 59.5q171 0 292.5 -121.5t121.5 -292.5v-528q0 -11 -7 -18t-18 -7q-10 0 -17 7t-7 18v528q0 151 -107 258t-258 107q-152 0 -259 -107t-107 -258v-528q0 -11 -7 -18t-18 -7z" />
    <glyph glyph-name="i" unicode="i" horiz-adv-x="294" 
d="M147 0q-10 0 -17 7t-7 18v915q0 11 7 18t17 7q9 0 17 -7.5t8 -17.5v-915q0 -10 -8 -17.5t-17 -7.5zM92 1180q0 23 16 39t39 16t39.5 -16t16.5 -39t-16.5 -40.5t-39.5 -17.5t-39 17t-16 41z" />
    <glyph glyph-name="j" unicode="j" horiz-adv-x="305" 
d="M-102 -393q-11 -4 -21.5 -0.5t-13.5 12.5t2.5 19t17.5 14q109 41 175.5 144.5t66.5 269.5l-2 870q0 16 12.5 22t25.5 0t13 -22v-870q0 -341 -276 -459zM92 1180q0 23 16 39t39 16t39.5 -16t16.5 -39t-16.5 -40.5t-39.5 -17.5t-39 17t-16 41z" />
    <glyph glyph-name="k" unicode="k" horiz-adv-x="868" 
d="M127 0q-9 0 -17 8t-8 17v1384q0 10 8 17.5t17 7.5t17 -7.5t8 -17.5v-928l616 471q21 17 35 -4q6 -9 3.5 -19t-11.5 -16l-459 -350l459 -524q12 -19 -2 -33q-9 -6 -17 -6q-10 0 -18 8l-463 522l-143 -108v-397q0 -9 -8 -17t-17 -8z" />
    <glyph glyph-name="l" unicode="l" horiz-adv-x="612" 
d="M528 0q-200 0 -313 121t-113 332v958q0 9 7.5 16t17.5 7q9 0 17 -7t8 -16v-958q0 -192 98 -298t278 -106q10 0 16.5 -7.5t6.5 -16.5q0 -10 -6.5 -17.5t-16.5 -7.5z" />
    <glyph glyph-name="m" unicode="m" horiz-adv-x="1662" 
d="M831 0q-10 0 -17 7t-7 18v563q0 136 -96.5 231.5t-231.5 95.5t-231 -95.5t-96 -231.5v-563q0 -11 -7 -18t-18 -7t-18 7t-7 18v563q0 157 110 267t267 110q118 0 214 -67.5t138 -174.5q40 107 136.5 174.5t216.5 67.5q156 0 266.5 -110.5t110.5 -266.5v-563
q0 -11 -7.5 -18t-17.5 -7q-12 0 -19.5 7t-7.5 18v563q0 136 -95 231.5t-230 95.5q-137 0 -232.5 -95.5t-95.5 -231.5v-563q0 -11 -7 -18t-18 -7z" />
    <glyph glyph-name="n" unicode="n" 
d="M117 0q-11 0 -18 7t-7 18v528q0 172 122 293t294 121q171 0 292.5 -121.5t121.5 -292.5v-528q0 -11 -7 -18t-18 -7t-18 7t-7 18v528q0 151 -106.5 258t-257.5 107q-152 0 -259.5 -107t-107.5 -258v-528q0 -11 -7 -18t-17 -7z" />
    <glyph glyph-name="o" unicode="o" horiz-adv-x="1091" 
d="M547 -6q-132 0 -244 65t-177 176.5t-65 243.5q0 131 65 242.5t177 176.5t244 65q131 0 242 -65t176 -176.5t65 -242.5q0 -132 -65 -243.5t-176 -176.5t-242 -65zM111 479q0 -181 127.5 -308.5t308.5 -127.5t308.5 127.5t127.5 308.5t-127.5 308.5t-308.5 127.5
t-308.5 -127.5t-127.5 -308.5z" />
    <glyph glyph-name="p" unicode="p" horiz-adv-x="1122" 
d="M575 -4q-143 0 -260 75.5t-176 200.5v-661q0 -10 -7.5 -16.5t-16.5 -6.5t-16 6.5t-7 16.5v860v2v8q0 131 65 242.5t176 176.5t242 65q132 0 244 -65t177 -176.5t65 -242.5q0 -132 -65 -243.5t-177 -176.5t-244 -65zM139 481q0 -181 127.5 -308.5t308.5 -127.5
q182 0 309.5 127.5t127.5 308.5t-128 309t-309 128t-308.5 -127.5t-127.5 -309.5z" />
    <glyph glyph-name="q" unicode="q" horiz-adv-x="1112" 
d="M547 -4q-132 0 -244 65t-177 176.5t-65 243.5q0 131 65 242.5t177 176.5t244 65q131 0 242 -65t176 -176.5t65 -242.5v-8v-2v-860q0 -10 -6.5 -16.5t-15.5 -6.5q-10 0 -17.5 6.5t-7.5 16.5v661q-59 -125 -176 -200.5t-260 -75.5zM111 481q0 -181 127.5 -308.5
t308.5 -127.5t308.5 127.5t127.5 308.5q0 182 -127.5 309.5t-308.5 127.5t-308.5 -127.5t-127.5 -309.5z" />
    <glyph glyph-name="r" unicode="r" horiz-adv-x="952" 
d="M127 0q-9 0 -17 7.5t-8 17.5v526q0 172 122 294t294 122q132 0 240 -78t151 -205q3 -9 -1 -18.5t-13 -12.5q-11 -3 -20.5 2t-12.5 15q-38 110 -132.5 177.5t-211.5 67.5q-152 0 -258 -106t-106 -258v-526q0 -10 -8 -17.5t-19 -7.5z" />
    <glyph glyph-name="s" unicode="s" horiz-adv-x="860" 
d="M444 -4q-68 0 -133.5 15t-113.5 38t-78 41.5t-49 34.5q-18 14 -4 35q7 8 16.5 10t17.5 -6q71 -59 160.5 -91t173.5 -32t156 21.5t115.5 70t44.5 113.5q1 78 -78.5 136t-229.5 89q-92 19 -159.5 50t-102 61.5t-54 66t-23 60t-1.5 47.5q8 99 105 157.5t242 49.5
q156 -6 286 -101q20 -17 6 -35q-6 -8 -16 -10t-18 4q-84 64 -184 85.5t-178.5 5t-133.5 -59.5t-59 -100q-3 -18 0.5 -38.5t20.5 -49t48 -53.5t91 -50t141 -41q86 -18 151 -46t101 -56t58.5 -61.5t29 -59t6.5 -51.5q0 -100 -92 -175t-263 -75z" />
    <glyph glyph-name="t" unicode="t" horiz-adv-x="679" 
d="M127 1434q11 0 18 -7t7 -18v-448h372q9 0 17 -7.5t8 -17.5t-8 -17.5t-17 -7.5h-372v-419q0 -95 23.5 -171t62.5 -125.5t92.5 -83t110.5 -47.5t118 -14l35 -2q10 0 17 -6.5t7 -17.5t-7 -18t-17 -7h-35q-66 0 -129 16t-123 53.5t-105 92.5t-72.5 140t-27.5 190v917
q0 11 7 18t18 7z" />
    <glyph glyph-name="u" unicode="u" 
d="M117 967q10 0 17 -7t7 -18v-528q0 -151 107.5 -258t259.5 -107q151 0 257.5 107t106.5 258v528q0 10 7 17.5t18 7.5t18 -7.5t7 -17.5v-528q0 -171 -121.5 -292.5t-292.5 -121.5q-172 0 -294 121t-122 293v528q0 10 7 17.5t18 7.5z" />
    <glyph glyph-name="v" unicode="v" horiz-adv-x="929" 
d="M459 0q-16 0 -23 14l-383 916q-3 9 1.5 18.5t13.5 14.5q21 7 32 -15l359 -860l372 860q3 10 13 14t20 1q9 -5 13 -14.5t0 -18.5l-396 -916q-7 -14 -22 -14z" />
    <glyph glyph-name="w" unicode="w" horiz-adv-x="1708" 
d="M459 0q-16 0 -23 14l-383 916q-3 9 1.5 18.5t13.5 14.5q21 7 32 -15l359 -860l372 860q3 10 13 14t20 1q2 -1 8 -7t7 -8l358 -860l373 860q3 10 12.5 14t19.5 1q9 -5 13 -14.5t0 -18.5l-395 -916q-7 -14 -23 -14t-23 14l-360 863l-373 -863q-7 -14 -22 -14z" />
    <glyph glyph-name="x" unicode="x" horiz-adv-x="909" 
d="M76 -2q-11 0 -17 6q-8 6 -9 16.5t5 18.5l367 442l-367 441q-6 8 -5 18t9 16q7 6 18 5.5t17 -7.5l361 -434l360 434q6 7 17 7.5t18 -5.5q8 -6 9 -16t-5 -18l-367 -441l367 -442q6 -8 5 -18.5t-9 -16.5q-6 -6 -16 -6q-14 0 -19 8l-360 436l-361 -436q-8 -8 -18 -8z" />
    <glyph glyph-name="y" unicode="y" horiz-adv-x="942" 
d="M336 -336q-8 0 -12 2q-8 5 -12 15.5t-1 17.5l138 321l-396 904q-4 9 -1 19t11 13q22 10 33 -12l381 -860l369 860q11 22 33 12q8 -3 11 -12t-1 -20l-387 -906q0 -15 -8 -20l-138 -320q-7 -14 -20 -14z" />
    <glyph glyph-name="z" unicode="z" horiz-adv-x="958" 
d="M106 0q-15 0 -22 14q-7 15 2 27l682 870h-643q-11 0 -19 7.5t-8 17.5t8 17.5t19 7.5h694q15 0 23 -15q6 -12 -4 -26l-680 -871h694q11 0 18 -7t7 -17q0 -11 -7.5 -18t-17.5 -7h-746z" />
    <glyph glyph-name="braceleft" unicode="{" horiz-adv-x="432" 
d="M213 -47q-11 0 -19 7t-8 17v584q0 37 -46 77t-85 58q-14 7 -14 21q0 18 12 24q44 24 88.5 65t44.5 71v583q0 10 8 17.5t19 7.5h133q9 0 17 -7.5t8 -17.5q0 -11 -7.5 -18.5t-17.5 -7.5h-108v-557q0 -73 -121 -158q47 -28 84 -69.5t37 -88.5v-557h108q9 0 17 -8.5t8 -18.5
t-8 -17t-17 -7h-133z" />
    <glyph glyph-name="bar" unicode="|" horiz-adv-x="215" 
d="M106 -195q-9 0 -16.5 7.5t-7.5 17.5v1763q0 10 7.5 17.5t16.5 7.5q11 0 19 -7.5t8 -17.5v-1763q0 -10 -8 -17.5t-19 -7.5z" />
    <glyph glyph-name="braceright" unicode="}" horiz-adv-x="432" 
d="M86 -47q-9 0 -17 7t-8 17t8 18.5t17 8.5h109v557q0 47 36.5 88.5t83.5 69.5q-120 84 -120 158v557h-109q-10 0 -17.5 7.5t-7.5 18.5q0 10 8 17.5t17 7.5h133q11 0 19 -7.5t8 -17.5v-583q0 -30 44.5 -71t88.5 -65q12 -6 12 -24q0 -14 -14 -21q-39 -18 -85 -58t-46 -77
v-584q0 -10 -8 -17t-19 -7h-133z" />
    <glyph glyph-name="asciitilde" unicode="~" horiz-adv-x="1136" 
d="M375 664q-89 0 -161.5 51t-109.5 139q-4 10 1 20t14 13t18.5 -1.5t12.5 -13.5q32 -75 91.5 -117t133.5 -42q35 0 69 13.5t53 26.5t56 42q35 28 60.5 45.5t69.5 33t91 15.5q87 0 156.5 -49t101.5 -133q3 -9 -1.5 -20t-14.5 -15q-25 -4 -31 16q-26 71 -82.5 111.5
t-128.5 40.5q-39 0 -76.5 -14t-56.5 -27t-59 -43q-53 -44 -100.5 -68t-106.5 -24z" />
    <glyph glyph-name="exclamdown" unicode="&#xa1;" horiz-adv-x="266" 
d="M133 961q21 0 36 -16t15 -38t-14.5 -36.5t-36.5 -14.5t-36.5 14.5t-14.5 36.5t15 38t36 16zM109 -449v1205q0 10 7.5 17t16.5 7q11 0 19 -7t8 -17v-1205q0 -10 -8 -17t-19 -7q-9 0 -16.5 7t-7.5 17z" />
    <glyph glyph-name="cent" unicode="&#xa2;" horiz-adv-x="937" 
d="M524 88q-9 0 -16.5 7.5t-7.5 17.5v108q-187 19 -313 157.5t-126 328.5q0 188 126 327t313 158v125q0 10 7.5 17t16.5 7q11 0 19 -7t8 -17v-123q166 0 295 -102q9 -6 10.5 -17t-4.5 -18q-6 -8 -16.5 -9t-18.5 5q-122 92 -266 92v-877q144 0 266 92q17 14 35 -4
q6 -7 4.5 -17.5t-10.5 -16.5q-130 -103 -295 -103v-106q0 -10 -8 -17.5t-19 -7.5zM111 707q0 -168 112 -293t277 -144v873q-165 -19 -277 -144t-112 -292z" />
    <glyph glyph-name="sterling" unicode="&#xa3;" horiz-adv-x="1155" 
d="M117 0q-16 0 -23 14q-7 16 6 29q5 5 13 15t28 45.5t35.5 75.5t28 105t12.5 134v205h-131q-10 0 -17.5 7.5t-7.5 16.5q0 11 7.5 18t17.5 7h131v344q0 173 123.5 296.5t298.5 123.5h14q126 0 231 -69.5t156 -186.5q7 -26 -14 -33q-9 -4 -18.5 -0.5t-14.5 12.5
q-43 103 -136.5 165t-203.5 62h-14q-153 0 -262 -109t-109 -261v-344h574q9 0 16.5 -7.5t7.5 -17.5q0 -9 -7.5 -16.5t-16.5 -7.5h-574v-205q0 -218 -100 -369h881q9 0 16.5 -7t7.5 -17t-7.5 -17.5t-16.5 -7.5h-932z" />
    <glyph glyph-name="yen" unicode="&#xa5;" horiz-adv-x="1196" 
d="M1143 1430q19 -13 8 -35l-498 -791h326q22 0 22 -22q0 -25 -22 -25h-354v-197h354q10 0 16 -7t6 -17q0 -11 -6 -19t-16 -8h-354l-2 -284q0 -10 -8 -17.5t-17 -7.5q-10 0 -17.5 7t-7.5 18l2 284h-350q-8 0 -15 8.5t-7 18.5q0 9 7 16.5t15 7.5h350v197h-350q-8 0 -15 7
t-7 18q0 9 7 15.5t15 6.5h320l-500 791q-6 9 -3.5 19t11.5 16q7 5 18 2.5t15 -11.5l514 -811l508 811q15 19 35 9z" />
    <glyph glyph-name="brokenbar" unicode="&#xa6;" horiz-adv-x="256" 
d="M127 819q-9 0 -17 7.5t-8 17.5v749q0 10 8 17.5t17 7.5q11 0 19 -7.5t8 -17.5v-749q0 -10 -8 -17.5t-19 -7.5zM102 -180v749q0 10 8 17.5t17 7.5q11 0 19 -7.5t8 -17.5v-749q0 -10 -8 -17.5t-19 -7.5q-9 0 -17 7.5t-8 17.5z" />
    <glyph glyph-name="section" unicode="&#xa7;" horiz-adv-x="921" 
d="M66 195q7 8 16.5 10t17.5 -6q71 -59 160.5 -91t173.5 -32t156 21.5t115.5 70t44.5 113.5q1 78 -78.5 136t-229.5 89q-92 19 -159.5 50t-102 61.5t-54 66t-23 60t-1.5 47.5q6 79 71.5 133.5t170.5 68.5q-60 27 -100.5 61t-56 67.5t-20.5 58.5t-3 49q8 99 104.5 157.5
t241.5 49.5q157 -6 287 -101q20 -17 6 -35q-6 -8 -16.5 -10t-18.5 4q-84 64 -184 85.5t-178.5 5t-133.5 -59.5t-59 -100q-3 -18 0.5 -38.5t20.5 -49t48 -53.5t91 -50t141 -41q86 -18 151 -46t101 -56t58.5 -61.5t29 -59t6.5 -51.5q0 -75 -53.5 -139.5t-155.5 -92.5
q148 -81 148 -206q0 -100 -92 -175t-263 -75q-68 0 -133.5 15t-113.5 38t-78 41.5t-49 34.5q-18 14 -4 35zM152 786q-7 -43 14 -81.5t62 -66t89 -49.5t101.5 -36.5t93.5 -22.5t70 -12q42 -9 96 18t93 78.5t40 104.5q1 81 -82 138.5t-252 92.5q-126 15 -222.5 -35
t-102.5 -129z" />
    <glyph glyph-name="dieresis" unicode="&#xa8;" horiz-adv-x="337" 
d="M82 1448q-17 0 -29 13t-12 30t12 29t29 12t29 -12t12 -29t-12 -30t-29 -13zM215 1491q0 17 12 29t29 12t29 -12t12 -29t-12 -30t-29 -13t-29 13t-12 30z" />
    <glyph glyph-name="copyright" unicode="&#xa9;" horiz-adv-x="1564" 
d="M784 41q-139 0 -266 54t-218 146t-144.5 218t-53.5 264t53.5 264t144.5 217t217.5 145t266.5 54q138 0 263.5 -54t216.5 -145t144.5 -217t53.5 -264t-53.5 -264.5t-144.5 -218t-216.5 -145.5t-263.5 -54zM150 723q0 -172 85 -318.5t231 -231.5t318 -85q127 0 244 50.5
t201.5 135.5t135 202.5t50.5 246.5q0 170 -85 315.5t-230.5 230.5t-315.5 85q-172 0 -318 -85t-231 -230.5t-85 -315.5zM412 723q0 158 112.5 270.5t272.5 112.5q118 0 215 -66q18 -12 8 -32q-6 -8 -16.5 -10.5t-18.5 3.5q-86 58 -188 58q-138 0 -237 -99t-99 -237
q0 -139 99 -237.5t237 -98.5q106 0 198 64q20 13 35 -5q10 -21 -6 -34q-103 -74 -227 -74q-160 0 -272.5 112.5t-112.5 272.5z" />
    <glyph glyph-name="guillemotleft" unicode="&#xab;" horiz-adv-x="1155" 
d="M573 168q-7 0 -16 6l-481 324q-15 15 -15 26q0 10 13 19l483 340q20 11 37 -6q8 -9 6 -21t-12 -18l-451 -314l451 -303q9 -5 11 -18.5t-5 -22.5q-8 -12 -21 -12zM485 524q0 10 13 19l483 340q20 11 37 -6q7 -9 6 -21t-10 -18l-453 -314l453 -303q8 -5 9.5 -18.5
t-5.5 -22.5q-4 -12 -21 -12q-7 0 -16 6l-479 324q-17 14 -17 26z" />
    <glyph glyph-name="registered" unicode="&#xae;" horiz-adv-x="1472" 
d="M735 41q-182 0 -337 90.5t-246 246.5t-91 339t91 338.5t246 245.5t337 90q138 0 263.5 -53.5t215.5 -143.5t143.5 -215t53.5 -262t-53.5 -262.5t-143.5 -216t-215.5 -144t-263.5 -53.5zM111 717q0 -128 49 -244t132.5 -200.5t199.5 -134.5t243 -50q171 0 316 84.5
t229 229.5t84 315q0 127 -49.5 243t-134 200t-201 133.5t-244.5 49.5q-127 0 -243 -49.5t-199.5 -133.5t-132.5 -199.5t-49 -243.5zM473 369v704q0 10 8.5 17.5t18.5 7.5h317q98 0 169 -71t71 -171q0 -91 -61 -159t-150 -79l207 -233q7 -6 6.5 -17.5t-8.5 -17.5
q-4 -4 -17 -4q-10 0 -16 6l-236 264h-260v-247q0 -10 -6.5 -16.5t-15.5 -6.5q-10 0 -18.5 6.5t-8.5 16.5zM522 664h295q80 0 136.5 56.5t56.5 135.5q0 81 -56.5 138t-136.5 57h-295v-387z" />
    <glyph glyph-name="macron" unicode="&#xaf;" horiz-adv-x="399" 
d="M84 1522q-14 0 -19.5 12t0 23.5t19.5 11.5h231q22 0 23 -23.5t-23 -23.5h-231z" />
    <glyph glyph-name="degree" unicode="&#xb0;" horiz-adv-x="593" 
d="M295 1436q99 0 168 -69.5t69 -164.5t-68 -164t-163 -69q-99 0 -169.5 68.5t-70.5 164.5q0 94 69.5 164t164.5 70zM111 1202q0 -78 54.5 -131t135.5 -53q77 0 129.5 53t52.5 131t-52.5 131t-129.5 53q-81 0 -135.5 -53t-54.5 -131z" />
    <glyph glyph-name="plusminus" unicode="&#xb1;" horiz-adv-x="880" 
d="M125 600q-8 0 -15.5 8.5t-7.5 18.5q0 9 7.5 16.5t15.5 7.5h293v289q0 8 6.5 15.5t17.5 7.5q9 0 16 -7.5t7 -15.5v-289h291q10 0 16 -7t6 -17q0 -11 -6 -19t-16 -8h-291v-291q0 -10 -7 -16t-16 -6q-24 0 -24 22v291h-293zM102 129q0 9 7.5 17t15.5 8h631q10 0 16 -7.5
t6 -17.5q0 -11 -6 -19t-16 -8h-631q-8 0 -15.5 8.5t-7.5 18.5z" />
    <glyph glyph-name="uni00B2" unicode="&#xb2;" horiz-adv-x="546" 
d="M57 860q-21 0 -24 14q-2 4 -1.5 13.5t3.5 13.5q53 56 142.5 153.5t154.5 168.5t71 77q27 37 32.5 80t-15.5 86q-24 43 -65.5 66.5t-92.5 17.5q-111 -6 -170 -100q-3 -8 -12.5 -10t-20.5 2q-18 12 -10 37q65 102 209 118q67 3 121.5 -25.5t81.5 -84.5q29 -53 21.5 -112
t-46.5 -107q-30 -40 -323 -359h368q25 0 25 -28q0 -21 -25 -21h-424z" />
    <glyph glyph-name="uni00B3" unicode="&#xb3;" horiz-adv-x="514" 
d="M231 877q-62 0 -119 27t-89 73q-8 21 6 35q17 9 34 -4q60 -86 168 -86q81 0 138 48.5t57 112.5q0 71 -54 117.5t-147 46.5q-28 0 -28 23q0 26 26 26q71 0 117.5 36t46.5 91q0 53 -48 89t-118 36q-75 0 -123 -41q-16 -13 -35 0q-6 7 -5 17t8 16q67 57 155 57
q89 0 151 -51.5t62 -122.5q0 -48 -27.5 -86.5t-74.5 -60.5q65 -28 103 -79.5t38 -113.5q0 -85 -71 -145.5t-171 -60.5z" />
    <glyph glyph-name="acute" unicode="&#xb4;" horiz-adv-x="243" 
d="M109 1493q-7 -14 -20.5 -15t-22.5 9t-3 24l56 134q9 20 30 20.5t34 -16.5t1 -39z" />
    <glyph glyph-name="paragraph" unicode="&#xb6;" horiz-adv-x="806" 
d="M61 995q0 119 59 220.5t160.5 161t221.5 59.5h12q11 0 19 -7.5t8 -17.5v-76v-49v-1263q0 -10 -8 -17.5t-19 -7.5q-9 0 -17 7.5t-8 17.5v530q-179 5 -303.5 133.5t-124.5 308.5zM694 23v1388q0 10 8 17.5t17 7.5q11 0 18.5 -7.5t7.5 -17.5v-1388q0 -10 -7.5 -17.5
t-18.5 -7.5q-9 0 -17 7.5t-8 17.5z" />
    <glyph glyph-name="periodcentered" unicode="&#xb7;" horiz-adv-x="233" 
d="M117 639q-23 0 -39.5 17t-16.5 40t16.5 39.5t39.5 16.5t39 -16.5t16 -39.5t-16 -40t-39 -17z" />
    <glyph glyph-name="cedilla" unicode="&#xb8;" horiz-adv-x="432" 
d="M80 -381q-22 9 -19 29q5 20 33 16q115 -27 187 23q39 27 46 67t-18 62q-29 32 -84 32q-52 0 -100 -22q-13 -8 -25.5 1.5t-5.5 27.5l72 163q3 10 12.5 14t18.5 1q8 -3 12 -12t0 -19l-51 -115q43 16 100 5t84 -44q35 -44 29 -100q-7 -60 -62 -100q-98 -63 -229 -29z" />
    <glyph glyph-name="uni00B9" unicode="&#xb9;" horiz-adv-x="194" 
d="M127 838q-9 0 -17 8t-8 18v668l-45 -19q-20 -9 -34 15q-8 23 12 33l82 36q18 4 24 -2q13 -10 13 -22v-709q0 -10 -8 -18t-19 -8z" />
    <glyph glyph-name="guillemotright" unicode="&#xbb;" horiz-adv-x="1085" 
d="M512 168q-12 0 -20 12q-7 9 -5 22.5t11 18.5l450 303l-450 314q-10 6 -12 18t6 21q17 17 36 6l484 -340q12 -8 12 -19q0 -12 -14 -26l-482 -324q-9 -6 -16 -6zM68 180q-7 9 -5.5 22.5t9.5 18.5l452 303l-452 314q-9 6 -10 18t6 21q17 17 36 6l484 -340q12 -8 12 -19
q0 -13 -16 -26l-480 -324q-9 -6 -16 -6q-16 0 -20 12z" />
    <glyph glyph-name="onequarter" unicode="&#xbc;" horiz-adv-x="1275" 
d="M127 674q-9 0 -17 8t-8 18v668l-45 -18q-21 -9 -34 14q-8 23 12 33l82 37q18 4 24 -2q13 -10 13 -23v-709q0 -10 -8 -18t-19 -8zM-37 4l916 1448q11 16 32 6q10 -4 12.5 -15t-3.5 -20l-914 -1448q-7 -11 -33 -4q-9 3 -12.5 13.5t2.5 19.5zM709 186l118 529q3 9 12.5 14.5
t20.5 3.5q22 -9 19 -28l-115 -496h299v242q0 9 7.5 16.5t16.5 7.5q11 0 20 -7.5t9 -16.5v-242h92q10 0 18.5 -8.5t8.5 -18.5q0 -9 -8 -15.5t-19 -6.5h-92v-135q0 -9 -9.5 -17t-19.5 -8q-9 0 -16.5 8t-7.5 17v135h-332q-9 0 -18 6q-7 11 -4 20z" />
    <glyph glyph-name="onehalf" unicode="&#xbd;" horiz-adv-x="1234" 
d="M127 674q-9 0 -17 8t-8 18v668l-45 -18q-21 -9 -34 14q-8 23 12 33l82 37q18 4 24 -2q13 -10 13 -23v-709q0 -10 -8 -18t-19 -8zM-37 4l916 1448q11 16 32 6q10 -4 12.5 -15t-3.5 -20l-914 -1448q-7 -11 -33 -4q-9 3 -12.5 13.5t2.5 19.5zM721 14q-2 4 -1.5 13.5
t3.5 13.5q53 56 143 153.5t155 168.5t71 77q27 36 32 80t-16 86q-24 43 -65.5 66.5t-92.5 17.5q-111 -6 -170 -100q-3 -8 -12 -10t-20 2q-19 13 -11 36q65 103 209 119q67 3 121.5 -25.5t81.5 -84.5q29 -53 21.5 -112t-46.5 -107q-30 -40 -323 -359h368q25 0 25 -29
q0 -20 -25 -20h-424q-21 0 -24 14z" />
    <glyph glyph-name="threequarters" unicode="&#xbe;" horiz-adv-x="1595" 
d="M231 713q-62 0 -119 27t-89 73q-8 21 6 35q17 9 34 -4q60 -86 168 -86q80 0 137.5 49t57.5 113q0 71 -54 117t-147 46q-28 0 -28 23q0 27 26 27q71 0 117.5 36t46.5 91q0 53 -48 88.5t-118 35.5q-75 0 -123 -41q-16 -13 -35 0q-6 7 -5 17t8 16q69 58 155 58
q89 0 151 -51.5t62 -122.5q0 -48 -27.5 -87t-74.5 -61q65 -28 103 -79t38 -113q0 -85 -71 -146t-171 -61zM283 4l915 1448q11 17 33 6q10 -4 12 -15t-4 -20l-913 -1448q-7 -11 -33 -4q-9 3 -12.5 13.5t2.5 19.5zM1028 186l119 529q3 9 12.5 14.5t20.5 3.5q21 -9 18 -28
l-115 -496h299v242q0 9 8 16.5t17 7.5q11 0 20 -7.5t9 -16.5v-242h92q10 0 18 -8t8 -19q0 -9 -7.5 -15.5t-18.5 -6.5h-92v-135q0 -9 -9.5 -17t-19.5 -8q-9 0 -17 8t-8 17v135h-331q-10 0 -19 6q-7 11 -4 20z" />
    <glyph glyph-name="questiondown" unicode="&#xbf;" horiz-adv-x="976" 
d="M549 1339q22 0 36.5 -15.5t14.5 -37.5t-14.5 -36.5t-36.5 -14.5t-36.5 14.5t-14.5 36.5t14.5 37.5t36.5 15.5zM129 152q51 -122 160 -189.5t243 -58.5q141 11 242.5 86t138.5 196q3 9 -1.5 18.5t-14.5 12.5q-9 3 -19.5 -2.5t-11.5 -15.5q-9 -27 -20.5 -51t-38.5 -59.5
t-61 -61.5t-91.5 -47.5t-126.5 -26.5q-68 -5 -128.5 12.5t-103 50.5t-72.5 72t-46 82q-23 54 -26.5 110.5t22.5 119.5t84 110q51 42 74 62t65 60t62 67.5t47.5 73t40 89t22 102.5t9.5 126q0 10 -8 17t-19 7q-12 0 -19.5 -6.5t-7.5 -17.5q0 -62 -8.5 -116t-19.5 -95
t-35.5 -82.5t-44 -68.5t-57.5 -64t-63 -58t-73 -61q-87 -68 -112 -176.5t18 -216.5z" />
    <glyph glyph-name="Agrave" unicode="&#xc0;" horiz-adv-x="1378" 
d="M88 14q-7 -14 -21 -14t-22.5 10.5t-1.5 24.5l623 1386q6 14 20.5 14.5t22.5 -14.5l626 -1386q7 -13 -2.5 -24.5t-22.5 -11t-20 14.5l-196 439h-813zM305 502h766l-385 848zM586 1657q-10 24 0 40.5t32 16t33 -21.5l56 -133q7 -13 -1.5 -23.5t-22.5 -10t-21 14.5z" />
    <glyph glyph-name="Aacute" unicode="&#xc1;" horiz-adv-x="1378" 
d="M88 14q-7 -14 -21 -14t-22.5 10.5t-1.5 24.5l623 1386q6 14 20.5 14.5t22.5 -14.5l626 -1386q7 -13 -2.5 -24.5t-22.5 -11t-20 14.5l-196 439h-813zM305 502h766l-385 848zM664 1550l55 133q9 20 30 21t34 -16t1 -39l-75 -117q-7 -14 -20.5 -15t-22 9t-2.5 24z" />
    <glyph glyph-name="Acircumflex" unicode="&#xc2;" horiz-adv-x="1378" 
d="M88 14q-7 -14 -21 -14t-22.5 10.5t-1.5 24.5l623 1386q6 14 20.5 14.5t22.5 -14.5l626 -1386q7 -13 -2.5 -24.5t-22.5 -11t-20 14.5l-196 439h-813zM305 502h766l-385 848zM512 1561q-12 20 0 32l160 179q8 9 17.5 8.5t15.5 -8.5l161 -179q13 -17 -2 -32q-19 -9 -30 2
l-148 159l-139 -159q-5 -7 -15.5 -8t-19.5 6z" />
    <glyph glyph-name="Atilde" unicode="&#xc3;" horiz-adv-x="1378" 
d="M88 14q-7 -14 -21 -14t-22.5 10.5t-1.5 24.5l623 1386q6 14 20.5 14.5t22.5 -14.5l626 -1386q7 -13 -2.5 -24.5t-22.5 -11t-20 14.5l-196 439h-813zM305 502h766l-385 848zM487 1638q-4 22 17 29q9 3 19.5 -2t13.5 -14q14 -47 61 -47q15 0 37.5 20.5t51 41t58.5 20.5
q40 0 71 -23.5t40 -60.5q3 -14 -3 -22.5t-15 -10.5q-25 -5 -31 20q-4 23 -21.5 37t-40.5 14q-17 0 -42 -20t-52.5 -40.5t-52.5 -20.5q-42 0 -72 20.5t-39 58.5z" />
    <glyph glyph-name="Adieresis" unicode="&#xc4;" horiz-adv-x="1378" 
d="M88 14q-7 -14 -21 -14t-22.5 10.5t-1.5 24.5l623 1386q6 14 20.5 14.5t22.5 -14.5l626 -1386q7 -13 -2.5 -24.5t-22.5 -11t-20 14.5l-196 439h-813zM305 502h766l-385 848zM559 1571q0 17 12 29t29 12t29 -12t12 -29t-12 -30t-29 -13t-29 13t-12 30zM733 1571q0 17 12 29
t29 12t29 -12t12 -29t-12 -30t-29 -13t-29 13t-12 30z" />
    <glyph glyph-name="Aring" unicode="&#xc5;" horiz-adv-x="1378" 
d="M88 14q-7 -14 -21 -14t-22.5 10.5t-1.5 24.5l623 1386q6 14 20.5 14.5t22.5 -14.5l626 -1386q7 -13 -2.5 -24.5t-22.5 -11t-20 14.5l-196 439h-813zM305 502h766l-385 848zM557 1673q0 51 38 88t91 37q55 0 93 -37t38 -88t-38 -88t-93 -37q-53 0 -91 37t-38 88zM600 1673
q0 -34 24.5 -56t61.5 -22q34 0 58 22.5t24 55.5t-24 55.5t-58 22.5q-37 0 -61.5 -22t-24.5 -56z" />
    <glyph glyph-name="AE" unicode="&#xc6;" horiz-adv-x="1910" 
d="M86 0q-8 0 -10 2q-9 5 -13 14.5t0 18.5l621 1386q8 15 23 15h235q8 0 10 -2h850q10 0 18.5 -8t8.5 -17q0 -10 -8 -17.5t-19 -7.5h-829v-643h729q9 0 16.5 -7t7.5 -17t-7.5 -17.5t-16.5 -7.5h-729v-643h829q11 0 19 -7t8 -17t-8 -17.5t-19 -7.5h-854q-9 0 -16.5 7.5
t-7.5 17.5v426h-621l-194 -437q-7 -14 -23 -14zM326 500h598v886h-201z" />
    <glyph glyph-name="Ccedilla" unicode="&#xc7;" horiz-adv-x="1333" 
d="M713 -391q-22 9 -19 29q5 20 33 16q116 -27 186 22q40 27 47 67t-18 62q-30 33 -84 33q-52 0 -100 -22q-13 -8 -25.5 1t-5.5 27l64 144q-145 4 -276 63.5t-226 157t-151 231t-56 279.5q0 196 98 363.5t266 265.5t365 98q228 0 408 -125q19 -13 8 -35q-6 -8 -16.5 -10
t-18.5 4q-172 117 -381 117q-138 0 -263.5 -54t-216.5 -145t-144.5 -216.5t-53.5 -262.5q0 -138 53.5 -264.5t144.5 -218t216.5 -145.5t263.5 -54q220 0 401 133q21 14 35 -6q6 -8 5 -18.5t-9 -16.5q-183 -132 -403 -141l-49 -111q43 16 100 5t84 -44q35 -44 29 -100
q-7 -60 -62 -100q-98 -63 -229 -29z" />
    <glyph glyph-name="Egrave" unicode="&#xc8;" horiz-adv-x="1130" 
d="M1022 49q11 0 19 -7t8 -17t-8 -17.5t-19 -7.5h-854q-9 0 -17 7.5t-8 17.5v1384q0 9 8 17t17 8h854q10 0 18.5 -8t8.5 -17q0 -10 -8 -17.5t-19 -7.5h-829v-643h729q9 0 16.5 -7t7.5 -17t-7.5 -17.5t-16.5 -7.5h-729v-643h829zM502 1659q-10 24 0 40.5t32 16t33 -21.5
l56 -133q7 -13 -1.5 -23.5t-22.5 -10t-21 14.5z" />
    <glyph glyph-name="Eacute" unicode="&#xc9;" horiz-adv-x="1130" 
d="M1022 49q11 0 19 -7t8 -17t-8 -17.5t-19 -7.5h-854q-9 0 -17 7.5t-8 17.5v1384q0 9 8 17t17 8h854q10 0 18.5 -8t8.5 -17q0 -10 -8 -17.5t-19 -7.5h-829v-643h729q9 0 16.5 -7t7.5 -17t-7.5 -17.5t-16.5 -7.5h-729v-643h829zM580 1552l55 134q9 20 30 20.5t34 -16.5
t1 -39l-75 -117q-7 -14 -20.5 -15t-22 9t-2.5 24z" />
    <glyph glyph-name="Ecircumflex" unicode="&#xca;" horiz-adv-x="1130" 
d="M1022 49q11 0 19 -7t8 -17t-8 -17.5t-19 -7.5h-854q-9 0 -17 7.5t-8 17.5v1384q0 9 8 17t17 8h854q10 0 18.5 -8t8.5 -17q0 -10 -8 -17.5t-19 -7.5h-829v-643h729q9 0 16.5 -7t7.5 -17t-7.5 -17.5t-16.5 -7.5h-729v-643h829zM428 1563q-12 20 0 32l160 179q8 9 17.5 8.5
t15.5 -8.5l161 -179q13 -17 -2 -32q-19 -9 -30 2l-148 159l-139 -159q-5 -7 -15.5 -8t-19.5 6z" />
    <glyph glyph-name="Edieresis" unicode="&#xcb;" horiz-adv-x="1130" 
d="M1022 49q11 0 19 -7t8 -17t-8 -17.5t-19 -7.5h-854q-9 0 -17 7.5t-8 17.5v1384q0 9 8 17t17 8h854q10 0 18.5 -8t8.5 -17q0 -10 -8 -17.5t-19 -7.5h-829v-643h729q9 0 16.5 -7t7.5 -17t-7.5 -17.5t-16.5 -7.5h-729v-643h829zM475 1573q0 17 12 29t29 12t29 -12t12 -29
t-12 -30t-29 -13t-29 13t-12 30zM649 1573q0 17 12 29t29 12t29 -12t12 -29t-12 -30t-29 -13t-29 13t-12 30z" />
    <glyph glyph-name="Igrave" unicode="&#xcc;" horiz-adv-x="296" 
d="M147 -2q-9 0 -16.5 7.5t-7.5 17.5v1390q0 10 7.5 17.5t16.5 7.5q11 0 19 -7.5t8 -17.5v-1390q0 -10 -8 -17.5t-19 -7.5zM43 1665q-13 23 -1 40.5t34 16.5t33 -22l55 -133q7 -13 -1.5 -23.5t-22.5 -10t-21 14.5z" />
    <glyph glyph-name="Iacute" unicode="&#xcd;" horiz-adv-x="296" 
d="M147 -2q-9 0 -16.5 7.5t-7.5 17.5v1390q0 10 7.5 17.5t16.5 7.5q11 0 19 -7.5t8 -17.5v-1390q0 -10 -8 -17.5t-19 -7.5zM121 1550l55 133q11 21 33 22t34 -16t-1 -40l-76 -117q-7 -14 -21 -14.5t-22.5 9.5t-1.5 23z" />
    <glyph glyph-name="Icircumflex" unicode="&#xce;" horiz-adv-x="296" 
d="M147 -2q-9 0 -16.5 7.5t-7.5 17.5v1390q0 10 7.5 17.5t16.5 7.5q11 0 19 -7.5t8 -17.5v-1390q0 -10 -8 -17.5t-19 -7.5zM-27 1591l160 178q6 7 17.5 7t15.5 -7l162 -178q13 -17 -2.5 -31t-30.5 1l-148 159l-139 -159q-8 -11 -21.5 -7.5t-18 14.5t4.5 23z" />
    <glyph glyph-name="Idieresis" unicode="&#xcf;" horiz-adv-x="296" 
d="M147 -2q-9 0 -16.5 7.5t-7.5 17.5v1390q0 10 7.5 17.5t16.5 7.5q11 0 19 -7.5t8 -17.5v-1390q0 -10 -8 -17.5t-19 -7.5zM20 1556q0 17 12 29t29 12t29 -12t12 -29t-12 -30t-29 -13t-29 13t-12 30zM195 1556q0 17 12 29t29 12t28.5 -12t11.5 -29q0 -18 -11.5 -30.5
t-28.5 -12.5t-29 13t-12 30z" />
    <glyph glyph-name="Eth" unicode="&#xd0;" horiz-adv-x="1468" 
d="M670 1434q195 0 360 -96t260.5 -261t95.5 -360q0 -145 -56.5 -277.5t-152 -229t-228.5 -153.5t-279 -57h-398q-26 0 -26 27v694h-180q-10 0 -17.5 8t-7.5 19q0 9 7.5 16.5t17.5 7.5h180v635v6q0 8 7.5 14.5t18.5 6.5h398zM293 53l377 -6q137 0 261.5 53.5t213.5 143.5
t141.5 214t52.5 259q0 183 -89 336.5t-243 243t-337 89.5h-377v-614h364q10 0 17.5 -7.5t7.5 -16.5q0 -11 -7.5 -19t-17.5 -8h-364v-668z" />
    <glyph glyph-name="Ntilde" unicode="&#xd1;" horiz-adv-x="1415" 
d="M166 0q-9 0 -16 7.5t-7 19.5v1384q0 8 5 15t12 8q15 6 28 -7l1035 -1329v1313q0 10 6.5 17.5t15.5 7.5q12 0 19.5 -7t7.5 -18v-1384q0 -22 -17 -25q-2 -2 -10 -2q-11 0 -18 10l-1034 1327v-1310q0 -12 -7.5 -19.5t-19.5 -7.5zM506 1579q-4 22 16 29q9 3 19.5 -2.5
t13.5 -14.5q14 -47 61 -47q15 0 38 20.5t51.5 41t58.5 20.5q40 0 70.5 -23.5t39.5 -60.5q3 -14 -3 -22.5t-15 -10.5t-18.5 3.5t-12.5 17.5q-4 23 -21 37t-40 14q-20 0 -68 -41t-80 -41q-42 0 -71.5 21t-38.5 59z" />
    <glyph glyph-name="Ograve" unicode="&#xd2;" horiz-adv-x="1628" 
d="M815 -12q-148 0 -284 58t-234 156t-156.5 233.5t-58.5 283.5t58.5 283.5t156.5 233.5t234 156t284 58q197 0 365.5 -98t267 -266.5t98.5 -366.5t-98.5 -366.5t-267 -266.5t-365.5 -98zM133 719q0 -111 34.5 -214.5t97.5 -187.5t146.5 -147.5t188 -98t215.5 -34.5
q138 0 264 54t217 145.5t145 218t54 264.5t-54 264.5t-145 218t-217 145.5t-264 54q-111 0 -215.5 -34.5t-188 -98t-146.5 -147.5t-97.5 -187.5t-34.5 -214.5zM715 1642q-10 24 0 40.5t32 16t33 -21.5l56 -133q7 -13 -1.5 -23t-22.5 -9.5t-21 14.5z" />
    <glyph glyph-name="Oacute" unicode="&#xd3;" horiz-adv-x="1628" 
d="M815 -12q-148 0 -284 58t-234 156t-156.5 233.5t-58.5 283.5t58.5 283.5t156.5 233.5t234 156t284 58q197 0 365.5 -98t267 -266.5t98.5 -366.5t-98.5 -366.5t-267 -266.5t-365.5 -98zM133 719q0 -111 34.5 -214.5t97.5 -187.5t146.5 -147.5t188 -98t215.5 -34.5
q138 0 264 54t217 145.5t145 218t54 264.5t-54 264.5t-145 218t-217 145.5t-264 54q-111 0 -215.5 -34.5t-188 -98t-146.5 -147.5t-97.5 -187.5t-34.5 -214.5zM793 1536l55 133q9 20 30 20.5t34 -16.5t1 -39l-75 -116q-7 -14 -20.5 -15t-22 9t-2.5 24z" />
    <glyph glyph-name="Ocircumflex" unicode="&#xd4;" horiz-adv-x="1628" 
d="M815 -12q-148 0 -284 58t-234 156t-156.5 233.5t-58.5 283.5t58.5 283.5t156.5 233.5t234 156t284 58q197 0 365.5 -98t267 -266.5t98.5 -366.5t-98.5 -366.5t-267 -266.5t-365.5 -98zM133 719q0 -111 34.5 -214.5t97.5 -187.5t146.5 -147.5t188 -98t215.5 -34.5
q138 0 264 54t217 145.5t145 218t54 264.5t-54 264.5t-145 218t-217 145.5t-264 54q-111 0 -215.5 -34.5t-188 -98t-146.5 -147.5t-97.5 -187.5t-34.5 -214.5zM641 1546q-12 21 0 33l160 178q8 9 17.5 8.5t15.5 -8.5l161 -178q14 -17 -2 -33q-19 -9 -30 2l-148 160
l-139 -160q-5 -7 -15.5 -8t-19.5 6z" />
    <glyph glyph-name="Otilde" unicode="&#xd5;" horiz-adv-x="1628" 
d="M815 -12q-148 0 -284 58t-234 156t-156.5 233.5t-58.5 283.5t58.5 283.5t156.5 233.5t234 156t284 58q197 0 365.5 -98t267 -266.5t98.5 -366.5t-98.5 -366.5t-267 -266.5t-365.5 -98zM133 719q0 -111 34.5 -214.5t97.5 -187.5t146.5 -147.5t188 -98t215.5 -34.5
q138 0 264 54t217 145.5t145 218t54 264.5t-54 264.5t-145 218t-217 145.5t-264 54q-111 0 -215.5 -34.5t-188 -98t-146.5 -147.5t-97.5 -187.5t-34.5 -214.5zM616 1624q-4 22 17 29q9 3 19.5 -2.5t13.5 -14.5q14 -47 61 -47q15 0 37.5 20.5t51 41t58.5 20.5q40 0 71 -23.5
t40 -60.5q3 -14 -3 -22.5t-15 -10.5t-18.5 3.5t-12.5 17.5q-4 23 -21.5 37t-40.5 14q-20 0 -68 -41t-79 -41q-42 0 -72 21t-39 59z" />
    <glyph glyph-name="Odieresis" unicode="&#xd6;" horiz-adv-x="1628" 
d="M815 -12q-148 0 -284 58t-234 156t-156.5 233.5t-58.5 283.5t58.5 283.5t156.5 233.5t234 156t284 58q197 0 365.5 -98t267 -266.5t98.5 -366.5t-98.5 -366.5t-267 -266.5t-365.5 -98zM133 719q0 -111 34.5 -214.5t97.5 -187.5t146.5 -147.5t188 -98t215.5 -34.5
q138 0 264 54t217 145.5t145 218t54 264.5t-54 264.5t-145 218t-217 145.5t-264 54q-111 0 -215.5 -34.5t-188 -98t-146.5 -147.5t-97.5 -187.5t-34.5 -214.5zM688 1556q0 17 12 29t29 12t29 -12t12 -29t-12 -30t-29 -13t-29 13t-12 30zM862 1556q0 17 12 29t29 12t29 -12
t12 -29t-12 -30t-29 -13t-29 13t-12 30z" />
    <glyph glyph-name="multiply" unicode="&#xd7;" horiz-adv-x="698" 
d="M109 893q-6 6 -5.5 17t7.5 18q6 7 17 7.5t15 -5.5l207 -207l205 205q19 14 35 -2q6 -6 5.5 -16.5t-5.5 -16.5l-205 -205l205 -205q16 -16 0 -32q-18 -19 -35 -2l-205 204l-207 -204q-7 -7 -16.5 -7t-15.5 7q-15 15 -2 32l206 207z" />
    <glyph glyph-name="Oslash" unicode="&#xd8;" horiz-adv-x="1628" 
d="M815 -12q-235 0 -428 137l-94 -123q-7 -10 -19 -10q-10 0 -16 6q-8 6 -9 15.5t5 17.5l96 123q-125 103 -196.5 250.5t-71.5 314.5q0 148 58.5 283.5t156.5 233.5t234 156t284 58q237 0 428 -139l88 114q6 9 17 11t18 -4q18 -18 4 -35l-90 -115q124 -103 195 -250t71 -313
q0 -198 -98.5 -366.5t-267 -266.5t-365.5 -98zM133 719q0 -156 66 -292t182 -232l831 1077q-178 129 -397 129q-111 0 -215.5 -34.5t-188 -98t-146.5 -147.5t-97.5 -187.5t-34.5 -214.5zM418 164q179 -127 397 -127q138 0 264 54t217 145.5t145 218t54 264.5
q0 154 -65 290.5t-179 231.5z" />
    <glyph glyph-name="Ugrave" unicode="&#xd9;" horiz-adv-x="1380" 
d="M690 -6q-154 0 -284.5 76.5t-206.5 207t-76 283.5v850q0 11 7 18t17 7q11 0 18 -7t7 -18v-850q0 -140 69.5 -259.5t189 -189t259.5 -69.5q141 0 260 69.5t187.5 189t68.5 259.5v850q0 10 8 17.5t19 7.5q9 0 16.5 -7.5t7.5 -17.5v-850q0 -153 -76 -283.5t-206.5 -207
t-284.5 -76.5zM590 1642q-10 24 0 40.5t32 16t33 -21.5l56 -133q7 -13 -1.5 -23t-22.5 -9.5t-21 14.5z" />
    <glyph glyph-name="Uacute" unicode="&#xda;" horiz-adv-x="1380" 
d="M690 -6q-154 0 -284.5 76.5t-206.5 207t-76 283.5v850q0 11 7 18t17 7q11 0 18 -7t7 -18v-850q0 -140 69.5 -259.5t189 -189t259.5 -69.5q141 0 260 69.5t187.5 189t68.5 259.5v850q0 10 8 17.5t19 7.5q9 0 16.5 -7.5t7.5 -17.5v-850q0 -153 -76 -283.5t-206.5 -207
t-284.5 -76.5zM668 1536l55 133q9 20 30 20.5t34 -16.5t1 -39l-75 -116q-7 -14 -20.5 -15t-22 9t-2.5 24z" />
    <glyph glyph-name="Ucircumflex" unicode="&#xdb;" horiz-adv-x="1380" 
d="M690 -6q-154 0 -284.5 76.5t-206.5 207t-76 283.5v850q0 11 7 18t17 7q11 0 18 -7t7 -18v-850q0 -140 69.5 -259.5t189 -189t259.5 -69.5q141 0 260 69.5t187.5 189t68.5 259.5v850q0 10 8 17.5t19 7.5q9 0 16.5 -7.5t7.5 -17.5v-850q0 -153 -76 -283.5t-206.5 -207
t-284.5 -76.5zM516 1546q-12 21 0 33l160 178q8 9 17.5 8.5t15.5 -8.5l161 -178q14 -17 -2 -33q-19 -9 -30 2l-148 160l-139 -160q-5 -7 -15.5 -8t-19.5 6z" />
    <glyph glyph-name="Udieresis" unicode="&#xdc;" horiz-adv-x="1380" 
d="M690 -6q-154 0 -284.5 76.5t-206.5 207t-76 283.5v850q0 11 7 18t17 7q11 0 18 -7t7 -18v-850q0 -140 69.5 -259.5t189 -189t259.5 -69.5q141 0 260 69.5t187.5 189t68.5 259.5v850q0 10 8 17.5t19 7.5q9 0 16.5 -7.5t7.5 -17.5v-850q0 -153 -76 -283.5t-206.5 -207
t-284.5 -76.5zM563 1556q0 17 12 29t29 12t29 -12t12 -29t-12 -30t-29 -13t-29 13t-12 30zM737 1556q0 17 12 29t29 12t29 -12t12 -29t-12 -30t-29 -13t-29 13t-12 30z" />
    <glyph glyph-name="Yacute" unicode="&#xdd;" horiz-adv-x="1236" 
d="M1163 1430q19 -13 8 -35l-526 -838l-2 -532q0 -10 -8 -17.5t-17 -7.5q-10 0 -17 7t-7 18l2 532l-530 838q-6 9 -3.5 19t11.5 16q7 5 17.5 2.5t14.5 -11.5l515 -811l507 811q15 19 35 9zM598 1536l55 133q9 20 30.5 20.5t34.5 -16.5t1 -39l-76 -116q-7 -14 -20.5 -15
t-22 9t-2.5 24z" />
    <glyph glyph-name="Thorn" unicode="&#xde;" horiz-adv-x="1089" 
d="M147 0q-9 0 -16.5 7.5t-7.5 17.5v1384q0 10 7.5 17.5t16.5 7.5q11 0 19 -7.5t8 -17.5v-272h420q172 0 293 -122t121 -294q0 -171 -121.5 -292.5t-292.5 -121.5h-420v-282q0 -10 -8 -17.5t-19 -7.5zM174 356h420q151 0 257.5 107t106.5 258q0 152 -106.5 259t-257.5 107
h-420v-731z" />
    <glyph glyph-name="agrave" unicode="&#xe0;" horiz-adv-x="1132" 
d="M557 -6q-132 0 -243.5 65t-176.5 176.5t-65 243.5q0 131 65 242.5t176.5 176.5t243.5 65q131 0 242 -65t176 -176.5t65 -242.5v-8v-2v-446q0 -10 -6.5 -16.5t-15.5 -6.5q-10 0 -17.5 6.5t-7.5 16.5v247q-59 -125 -176 -200.5t-260 -75.5zM121 479q0 -181 127.5 -308.5
t308.5 -127.5t308.5 127.5t127.5 308.5t-127.5 308.5t-308.5 127.5t-308.5 -127.5t-127.5 -308.5zM457 1167q-10 24 0 40.5t32 16t33 -21.5l56 -133q7 -13 -2 -23t-23 -9.5t-21 14.5z" />
    <glyph glyph-name="aacute" unicode="&#xe1;" horiz-adv-x="1132" 
d="M557 -6q-132 0 -243.5 65t-176.5 176.5t-65 243.5q0 131 65 242.5t176.5 176.5t243.5 65q131 0 242 -65t176 -176.5t65 -242.5v-8v-2v-446q0 -10 -6.5 -16.5t-15.5 -6.5q-10 0 -17.5 6.5t-7.5 16.5v247q-59 -125 -176 -200.5t-260 -75.5zM121 479q0 -181 127.5 -308.5
t308.5 -127.5t308.5 127.5t127.5 308.5t-127.5 308.5t-308.5 127.5t-308.5 -127.5t-127.5 -308.5zM535 1061l55 133q9 20 30 20.5t34 -16.5t1 -39l-75 -117q-10 -22 -32 -12.5t-13 31.5z" />
    <glyph glyph-name="acircumflex" unicode="&#xe2;" horiz-adv-x="1132" 
d="M557 -6q-132 0 -243.5 65t-176.5 176.5t-65 243.5q0 131 65 242.5t176.5 176.5t243.5 65q131 0 242 -65t176 -176.5t65 -242.5v-8v-2v-446q0 -10 -6.5 -16.5t-15.5 -6.5q-10 0 -17.5 6.5t-7.5 16.5v247q-59 -125 -176 -200.5t-260 -75.5zM121 479q0 -181 127.5 -308.5
t308.5 -127.5t308.5 127.5t127.5 308.5t-127.5 308.5t-308.5 127.5t-308.5 -127.5t-127.5 -308.5zM383 1071q-12 21 0 33l160 178q8 9 17 8.5t15 -8.5l162 -178q14 -17 -2 -33q-19 -9 -30 2l-148 160l-139 -160q-5 -7 -15.5 -8t-19.5 6z" />
    <glyph glyph-name="atilde" unicode="&#xe3;" horiz-adv-x="1132" 
d="M557 -6q-132 0 -243.5 65t-176.5 176.5t-65 243.5q0 131 65 242.5t176.5 176.5t243.5 65q131 0 242 -65t176 -176.5t65 -242.5v-8v-2v-446q0 -10 -6.5 -16.5t-15.5 -6.5q-10 0 -17.5 6.5t-7.5 16.5v247q-59 -125 -176 -200.5t-260 -75.5zM121 479q0 -181 127.5 -308.5
t308.5 -127.5t308.5 127.5t127.5 308.5t-127.5 308.5t-308.5 127.5t-308.5 -127.5t-127.5 -308.5zM358 1149q-4 22 17 29q9 3 19.5 -2.5t13.5 -14.5q14 -47 61 -47q15 0 37.5 20.5t51 41t58.5 20.5q40 0 71 -23.5t40 -60.5q3 -14 -3 -22.5t-15 -10.5t-18.5 3.5t-12.5 17.5
q-4 23 -21.5 37t-40.5 14q-20 0 -68 -41t-79 -41q-42 0 -72 21t-39 59z" />
    <glyph glyph-name="adieresis" unicode="&#xe4;" horiz-adv-x="1132" 
d="M557 -6q-132 0 -243.5 65t-176.5 176.5t-65 243.5q0 131 65 242.5t176.5 176.5t243.5 65q131 0 242 -65t176 -176.5t65 -242.5v-8v-2v-446q0 -10 -6.5 -16.5t-15.5 -6.5q-10 0 -17.5 6.5t-7.5 16.5v247q-59 -125 -176 -200.5t-260 -75.5zM121 479q0 -181 127.5 -308.5
t308.5 -127.5t308.5 127.5t127.5 308.5t-127.5 308.5t-308.5 127.5t-308.5 -127.5t-127.5 -308.5zM430 1081q0 17 12 29t29 12t29 -12t12 -29t-12 -30t-29 -13t-29 13t-12 30zM604 1081q0 17 12 29t29 12t29 -12t12 -29t-12 -30t-29 -13t-29 13t-12 30z" />
    <glyph glyph-name="aring" unicode="&#xe5;" horiz-adv-x="1132" 
d="M557 -6q-132 0 -243.5 65t-176.5 176.5t-65 243.5q0 131 65 242.5t176.5 176.5t243.5 65q131 0 242 -65t176 -176.5t65 -242.5v-8v-2v-446q0 -10 -6.5 -16.5t-15.5 -6.5q-10 0 -17.5 6.5t-7.5 16.5v247q-59 -125 -176 -200.5t-260 -75.5zM121 479q0 -181 127.5 -308.5
t308.5 -127.5t308.5 127.5t127.5 308.5t-127.5 308.5t-308.5 127.5t-308.5 -127.5t-127.5 -308.5zM428 1184q0 51 38 88t91 37q55 0 93 -37t38 -88t-38 -88t-93 -37q-53 0 -91 37t-38 88zM471 1184q0 -34 24.5 -56t61.5 -22q34 0 58 22.5t24 55.5t-24 55.5t-58 22.5
q-37 0 -61.5 -22t-24.5 -56z" />
    <glyph glyph-name="ae" unicode="&#xe6;" horiz-adv-x="2004" 
d="M547 -6q-132 0 -244 65t-177 176.5t-65 243.5q0 131 65 242.5t177 176.5t244 65q158 0 284.5 -93t174.5 -239q48 147 173.5 239.5t284.5 92.5q130 0 240.5 -64.5t175 -175t64.5 -240.5q0 -9 -8 -16.5t-17 -7.5h-887q9 -163 121 -276t283 -130q243 -27 403 148
q6 6 16.5 6.5t18.5 -6.5q17 -14 2 -33q-81 -96 -196 -135.5t-248 -28.5q-135 12 -241 84t-161 186v-251q0 -10 -6.5 -16.5t-15.5 -6.5q-10 0 -17.5 6.5t-7.5 16.5v247q-59 -125 -176 -200.5t-260 -75.5zM111 479q0 -181 127.5 -308.5t308.5 -127.5t308.5 127.5t127.5 308.5
t-127.5 308.5t-308.5 127.5t-308.5 -127.5t-127.5 -308.5zM1032 508h862q-11 170 -135 288.5t-295 118.5t-296 -119t-136 -288z" />
    <glyph glyph-name="ccedilla" unicode="&#xe7;" horiz-adv-x="937" 
d="M453 -381q-22 9 -19 29q5 20 33 16q114 -26 186 23q40 27 47 67t-18 62q-29 32 -84 32q-52 0 -100 -22q-13 -8 -25.5 1.5t-5.5 27.5l61 139q-192 12 -324 152t-132 335q0 201 142.5 344.5t344.5 143.5q167 0 297 -103q9 -6 10.5 -17t-4.5 -18q-6 -8 -16.5 -9t-18.5 5
q-123 93 -268 93q-181 0 -309.5 -129.5t-128.5 -309.5q0 -181 128.5 -309.5t309.5 -128.5q146 0 268 92q17 14 35 -4q6 -7 4.5 -18t-10.5 -17q-125 -96 -278 -102l-48 -107q43 16 100.5 5t84.5 -44q34 -43 28 -100q-7 -61 -61 -100q-98 -63 -229 -29z" />
    <glyph glyph-name="egrave" unicode="&#xe8;" horiz-adv-x="1103" 
d="M520 4q-194 17 -321 153t-127 326q0 198 141 339t340 141q130 0 240.5 -64.5t174.5 -175t64 -240.5q0 -9 -7.5 -16.5t-16.5 -7.5h-887q9 -163 120.5 -276t282.5 -130q243 -28 404 148q6 6 16.5 6.5t18.5 -6.5q17 -14 2 -33q-81 -96 -196.5 -135.5t-248.5 -28.5zM121 508
h862q-11 170 -135 288.5t-295 118.5t-296 -119t-136 -288zM453 1167q-10 24 0 40.5t32 16t33 -21.5l55 -133q7 -13 -1.5 -23t-22.5 -9.5t-21 14.5z" />
    <glyph glyph-name="eacute" unicode="&#xe9;" horiz-adv-x="1103" 
d="M520 4q-194 17 -321 153t-127 326q0 198 141 339t340 141q130 0 240.5 -64.5t174.5 -175t64 -240.5q0 -9 -7.5 -16.5t-16.5 -7.5h-887q9 -163 120.5 -276t282.5 -130q243 -28 404 148q6 6 16.5 6.5t18.5 -6.5q17 -14 2 -33q-81 -96 -196.5 -135.5t-248.5 -28.5zM121 508
h862q-11 170 -135 288.5t-295 118.5t-296 -119t-136 -288zM530 1061l56 133q9 20 30 20.5t34 -16.5t1 -39l-76 -117q-10 -22 -32 -12.5t-13 31.5z" />
    <glyph glyph-name="ecircumflex" unicode="&#xea;" horiz-adv-x="1103" 
d="M520 4q-194 17 -321 153t-127 326q0 198 141 339t340 141q130 0 240.5 -64.5t174.5 -175t64 -240.5q0 -9 -7.5 -16.5t-16.5 -7.5h-887q9 -163 120.5 -276t282.5 -130q243 -28 404 148q6 6 16.5 6.5t18.5 -6.5q17 -14 2 -33q-81 -96 -196.5 -135.5t-248.5 -28.5zM121 508
h862q-11 170 -135 288.5t-295 118.5t-296 -119t-136 -288zM379 1071q-12 21 0 33l160 178q8 9 17 8.5t15 -8.5l162 -178q14 -17 -2 -33q-19 -10 -31 2l-147 160l-139 -160q-5 -7 -15.5 -8t-19.5 6z" />
    <glyph glyph-name="edieresis" unicode="&#xeb;" horiz-adv-x="1103" 
d="M520 4q-194 17 -321 153t-127 326q0 198 141 339t340 141q130 0 240.5 -64.5t174.5 -175t64 -240.5q0 -9 -7.5 -16.5t-16.5 -7.5h-887q9 -163 120.5 -276t282.5 -130q243 -28 404 148q6 6 16.5 6.5t18.5 -6.5q17 -14 2 -33q-81 -96 -196.5 -135.5t-248.5 -28.5zM121 508
h862q-11 170 -135 288.5t-295 118.5t-296 -119t-136 -288zM426 1081q0 17 12 29t29 12t29 -12t12 -29t-12 -30t-29 -13t-29 13t-12 30zM600 1081q0 17 12 29t29 12t29 -12t12 -29t-12 -30t-29 -13t-29 13t-12 30z" />
    <glyph glyph-name="igrave" unicode="&#xec;" horiz-adv-x="253" 
d="M127 0q-11 0 -18 7t-7 18v915q0 10 7 17.5t18 7.5q9 0 17 -7.5t8 -17.5v-915q0 -10 -8 -17.5t-17 -7.5zM23 1194q-10 24 0 40.5t32 16t33 -21.5l55 -133q7 -13 -1.5 -23.5t-22.5 -10t-21 14.5z" />
    <glyph glyph-name="iacute" unicode="&#xed;" horiz-adv-x="253" 
d="M127 0q-11 0 -18 7t-7 18v915q0 10 7 17.5t18 7.5q9 0 17 -7.5t8 -17.5v-915q0 -10 -8 -17.5t-17 -7.5zM100 1079l56 133q11 21 33 22t32 -15.5t0 -40.5l-76 -117q-7 -14 -21 -14.5t-22.5 9.5t-1.5 23z" />
    <glyph glyph-name="icircumflex" unicode="&#xee;" horiz-adv-x="253" 
d="M127 0q-11 0 -18 7t-7 18v915q0 10 7 17.5t18 7.5q9 0 17 -7.5t8 -17.5v-915q0 -10 -8 -17.5t-17 -7.5zM-47 1120l160 178q6 8 17 8t15 -8l162 -178q13 -17 -2.5 -31t-30.5 1l-147 159l-139 -159q-8 -11 -21.5 -7.5t-18 14.5t4.5 23z" />
    <glyph glyph-name="idieresis" unicode="&#xef;" horiz-adv-x="253" 
d="M127 0q-11 0 -18 7t-7 18v915q0 10 7 17.5t18 7.5q9 0 17 -7.5t8 -17.5v-915q0 -10 -8 -17.5t-17 -7.5zM0 1085q0 17 12 29t29 12t29 -12t12 -29t-12 -30t-29 -13t-29 13t-12 30zM174 1085q0 17 12 29t29 12t29 -12t12 -29t-12 -30t-29 -13t-29 13t-12 30z" />
    <glyph glyph-name="eth" unicode="&#xf0;" horiz-adv-x="1144" 
d="M569 -10q-205 0 -351 146t-146 351q0 204 146 349t351 145q134 0 249 -68t181 -180q-39 264 -143 469l-231 -41q-11 -2 -20 4.5t-9 16.5q-3 9 2.5 18t15.5 10l217 39q-57 97 -96 146q-17 21 4 35q8 6 18.5 4.5t16.5 -9.5q65 -87 109 -168l213 39q25 0 28 -20
q2 -11 -4 -20.5t-16 -10.5l-197 -35q51 -103 85.5 -215t48.5 -209t19 -159.5t5 -118.5v-21q0 -205 -146 -351t-350 -146zM121 487q0 -91 35.5 -173.5t96 -143t143 -96t173.5 -35.5q184 0 314.5 131.5t130.5 316.5q0 121 -59.5 223.5t-162 162t-223.5 59.5
q-185 0 -316.5 -130.5t-131.5 -314.5z" />
    <glyph glyph-name="ntilde" unicode="&#xf1;" 
d="M117 0q-11 0 -18 7t-7 18v528q0 172 122 293t294 121q171 0 292.5 -121.5t121.5 -292.5v-528q0 -11 -7 -18t-18 -7t-18 7t-7 18v528q0 151 -106.5 258t-257.5 107q-152 0 -259.5 -107t-107.5 -258v-528q0 -11 -7 -18t-17 -7zM309 1153q-4 22 17 29q9 3 19 -2.5t13 -14.5
q6 -21 22.5 -34t39.5 -13q15 0 37.5 20.5t51 41t58.5 20.5q40 0 71 -23.5t40 -60.5q3 -14 -3.5 -22.5t-15.5 -10.5t-18 3.5t-12 17.5q-4 23 -21.5 37t-40.5 14q-17 0 -42 -20.5t-52.5 -41t-52.5 -20.5q-42 0 -72 21t-39 59z" />
    <glyph glyph-name="ograve" unicode="&#xf2;" horiz-adv-x="1091" 
d="M547 -6q-132 0 -244 65t-177 176.5t-65 243.5q0 131 65 242.5t177 176.5t244 65q131 0 242 -65t176 -176.5t65 -242.5q0 -132 -65 -243.5t-176 -176.5t-242 -65zM111 479q0 -181 127.5 -308.5t308.5 -127.5t308.5 127.5t127.5 308.5t-127.5 308.5t-308.5 127.5
t-308.5 -127.5t-127.5 -308.5zM442 1176q-13 23 -1 40t34 16t33 -22l55 -133q7 -13 -1.5 -23t-22.5 -9.5t-21 14.5z" />
    <glyph glyph-name="oacute" unicode="&#xf3;" horiz-adv-x="1091" 
d="M547 -6q-132 0 -244 65t-177 176.5t-65 243.5q0 131 65 242.5t177 176.5t244 65q131 0 242 -65t176 -176.5t65 -242.5q0 -132 -65 -243.5t-176 -176.5t-242 -65zM111 479q0 -181 127.5 -308.5t308.5 -127.5t308.5 127.5t127.5 308.5t-127.5 308.5t-308.5 127.5
t-308.5 -127.5t-127.5 -308.5zM520 1069l55 133q9 20 30.5 20.5t34.5 -16.5t1 -39l-76 -116q-7 -14 -20.5 -15t-22 9t-2.5 24z" />
    <glyph glyph-name="ocircumflex" unicode="&#xf4;" horiz-adv-x="1091" 
d="M547 -6q-132 0 -244 65t-177 176.5t-65 243.5q0 131 65 242.5t177 176.5t244 65q131 0 242 -65t176 -176.5t65 -242.5q0 -132 -65 -243.5t-176 -176.5t-242 -65zM111 479q0 -181 127.5 -308.5t308.5 -127.5t308.5 127.5t127.5 308.5t-127.5 308.5t-308.5 127.5
t-308.5 -127.5t-127.5 -308.5zM369 1079q-12 21 0 33l159 178q8 9 17.5 8.5t15.5 -8.5l162 -178q14 -17 -2 -33q-19 -10 -31 2l-147 160l-140 -160q-5 -7 -15 -8t-19 6z" />
    <glyph glyph-name="otilde" unicode="&#xf5;" horiz-adv-x="1091" 
d="M547 -6q-132 0 -244 65t-177 176.5t-65 243.5q0 131 65 242.5t177 176.5t244 65q131 0 242 -65t176 -176.5t65 -242.5q0 -132 -65 -243.5t-176 -176.5t-242 -65zM111 479q0 -181 127.5 -308.5t308.5 -127.5t308.5 127.5t127.5 308.5t-127.5 308.5t-308.5 127.5
t-308.5 -127.5t-127.5 -308.5zM344 1157q-4 22 16 29q9 3 19.5 -2.5t13.5 -14.5q6 -21 22.5 -34t39.5 -13q15 0 37.5 20.5t51 41t58.5 20.5q40 0 71 -23.5t40 -60.5q3 -14 -3.5 -22.5t-15.5 -10.5t-18 3.5t-12 17.5q-4 23 -21.5 37t-40.5 14q-20 0 -68 -41t-79 -41
q-42 0 -72 21t-39 59z" />
    <glyph glyph-name="odieresis" unicode="&#xf6;" horiz-adv-x="1091" 
d="M547 -6q-132 0 -244 65t-177 176.5t-65 243.5q0 131 65 242.5t177 176.5t244 65q131 0 242 -65t176 -176.5t65 -242.5q0 -132 -65 -243.5t-176 -176.5t-242 -65zM111 479q0 -181 127.5 -308.5t308.5 -127.5t308.5 127.5t127.5 308.5t-127.5 308.5t-308.5 127.5
t-308.5 -127.5t-127.5 -308.5zM416 1090q0 17 12 28.5t29 11.5t29 -11.5t12 -28.5t-12 -30t-29 -13t-29 13t-12 30zM590 1090q0 17 12 28.5t29 11.5t29 -11.5t12 -28.5t-12 -30t-29 -13t-29 13t-12 30z" />
    <glyph glyph-name="divide" unicode="&#xf7;" horiz-adv-x="935" 
d="M127 696q-10 0 -17.5 7t-7.5 20q0 10 8 17.5t17 7.5h682q25 0 25 -25q0 -27 -25 -27h-682zM410 473q0 23 16 39t39 16t39 -16t16 -39t-16 -40t-39 -17t-39 17t-16 40zM410 977q0 23 16 39t39 16t39 -16t16 -39t-16 -40t-39 -17t-39 17t-16 40z" />
    <glyph glyph-name="oslash" unicode="&#xf8;" horiz-adv-x="1091" 
d="M547 -6q-152 0 -277 86l-61 -76q-7 -10 -19 -10q-10 0 -16 6q-8 6 -9 15.5t5 17.5l63 76q-81 69 -126.5 165t-45.5 205q0 131 65 242.5t177 176.5t244 65q167 0 301 -105l74 90q6 9 16.5 10.5t17.5 -4.5q18 -18 5 -34l-78 -95q70 -67 108.5 -156.5t38.5 -189.5
q0 -132 -65 -243.5t-176 -176.5t-242 -65zM111 479q0 -98 40.5 -184.5t112.5 -147.5l553 674q-118 94 -270 94q-181 0 -308.5 -127.5t-127.5 -308.5zM303 117q110 -74 244 -74q181 0 308.5 127.5t127.5 308.5q0 183 -129 312z" />
    <glyph glyph-name="ugrave" unicode="&#xf9;" 
d="M117 967q10 0 17 -7t7 -18v-528q0 -151 107.5 -258t259.5 -107q151 0 257.5 107t106.5 258v528q0 10 7 17.5t18 7.5t18 -7.5t7 -17.5v-528q0 -171 -121.5 -292.5t-292.5 -121.5q-172 0 -294 121t-122 293v528q0 10 7 17.5t18 7.5zM408 1176q-10 24 0 40.5t32 15.5t33 -22
l55 -133q7 -13 -1.5 -23t-22.5 -9.5t-21 14.5z" />
    <glyph glyph-name="uacute" unicode="&#xfa;" 
d="M117 967q10 0 17 -7t7 -18v-528q0 -151 107.5 -258t259.5 -107q151 0 257.5 107t106.5 258v528q0 10 7 17.5t18 7.5t18 -7.5t7 -17.5v-528q0 -171 -121.5 -292.5t-292.5 -121.5q-172 0 -294 121t-122 293v528q0 10 7 17.5t18 7.5zM485 1069l56 133q9 20 30 20.5t34 -16.5
t1 -39l-76 -116q-7 -14 -20.5 -15t-22 9t-2.5 24z" />
    <glyph glyph-name="ucircumflex" unicode="&#xfb;" 
d="M117 967q10 0 17 -7t7 -18v-528q0 -151 107.5 -258t259.5 -107q151 0 257.5 107t106.5 258v528q0 10 7 17.5t18 7.5t18 -7.5t7 -17.5v-528q0 -171 -121.5 -292.5t-292.5 -121.5q-172 0 -294 121t-122 293v528q0 10 7 17.5t18 7.5zM334 1079q-12 21 0 33l160 178
q8 9 17 8.5t15 -8.5l162 -178q14 -17 -2 -33q-19 -10 -31 2l-147 160l-139 -160q-5 -7 -15.5 -8t-19.5 6z" />
    <glyph glyph-name="udieresis" unicode="&#xfc;" 
d="M117 967q10 0 17 -7t7 -18v-528q0 -151 107.5 -258t259.5 -107q151 0 257.5 107t106.5 258v528q0 10 7 17.5t18 7.5t18 -7.5t7 -17.5v-528q0 -171 -121.5 -292.5t-292.5 -121.5q-172 0 -294 121t-122 293v528q0 10 7 17.5t18 7.5zM381 1090q0 17 12 28.5t29 11.5
t29 -11.5t12 -28.5t-12 -30t-29 -13t-29 13t-12 30zM555 1090q0 17 12 28.5t29 11.5t29 -11.5t12 -28.5t-12 -30t-29 -13t-29 13t-12 30z" />
    <glyph glyph-name="yacute" unicode="&#xfd;" horiz-adv-x="942" 
d="M336 -336q-8 0 -12 2q-8 5 -12 15.5t-1 17.5l138 321l-396 904q-4 9 -1 19t11 13q22 10 33 -12l381 -860l369 860q11 22 33 12q8 -3 11 -12t-1 -20l-387 -906q0 -15 -8 -20l-138 -320q-7 -14 -20 -14zM451 1069l55 133q9 20 30 20.5t34 -16.5t1 -39l-75 -116
q-7 -14 -20.5 -15t-22 9t-2.5 24z" />
    <glyph glyph-name="thorn" unicode="&#xfe;" horiz-adv-x="1112" 
d="M565 -4q-143 0 -260 75.5t-176 200.5v-661q0 -10 -7.5 -16.5t-17.5 -6.5q-9 0 -15.5 6.5t-6.5 16.5v1737q0 9 6.5 16.5t15.5 7.5t17 -7.5t8 -16.5v-660q60 125 177 201t259 76q132 0 244 -65t177 -176.5t65 -242.5q0 -132 -65 -243.5t-177 -176.5t-244 -65zM129 481
q0 -181 127.5 -308.5t308.5 -127.5t308.5 127.5t127.5 308.5q0 182 -127.5 309.5t-308.5 127.5t-308.5 -127.5t-127.5 -309.5z" />
    <glyph glyph-name="ydieresis" unicode="&#xff;" horiz-adv-x="942" 
d="M336 -336q-8 0 -12 2q-8 5 -12 15.5t-1 17.5l138 321l-396 904q-4 9 -1 19t11 13q22 10 33 -12l381 -860l369 860q11 22 33 12q8 -3 11 -12t-1 -20l-387 -906q0 -15 -8 -20l-138 -320q-7 -14 -20 -14zM346 1090q0 17 12 28.5t29 11.5t29 -11.5t12 -28.5t-12 -30t-29 -13
t-29 13t-12 30zM520 1090q0 17 12 28.5t29 11.5t29 -11.5t12 -28.5t-12 -30t-29 -13t-29 13t-12 30z" />
    <glyph glyph-name="Amacron" unicode="&#x100;" horiz-adv-x="1378" 
d="M88 14q-7 -14 -21 -14t-22.5 10.5t-1.5 24.5l623 1386q6 14 20.5 14.5t22.5 -14.5l626 -1386q7 -13 -2.5 -24.5t-22.5 -11t-20 14.5l-196 439h-813zM305 502h766l-385 848zM571 1573q-14 0 -19.5 11.5t0 23.5t19.5 12h232q22 0 23 -23.5t-23 -23.5h-232z" />
    <glyph glyph-name="amacron" unicode="&#x101;" horiz-adv-x="1132" 
d="M557 -6q-132 0 -243.5 65t-176.5 176.5t-65 243.5q0 131 65 242.5t176.5 176.5t243.5 65q131 0 242 -65t176 -176.5t65 -242.5v-8v-2v-446q0 -10 -6.5 -16.5t-15.5 -6.5q-10 0 -17.5 6.5t-7.5 16.5v247q-59 -125 -176 -200.5t-260 -75.5zM121 479q0 -181 127.5 -308.5
t308.5 -127.5t308.5 127.5t127.5 308.5t-127.5 308.5t-308.5 127.5t-308.5 -127.5t-127.5 -308.5zM442 1083q-14 0 -19.5 11.5t0 23.5t19.5 12h232q22 0 23 -23.5t-23 -23.5h-232z" />
    <glyph glyph-name="Abreve" unicode="&#x102;" horiz-adv-x="1378" 
d="M88 14q-7 -14 -21 -14t-22.5 10.5t-1.5 24.5l623 1386q6 14 20.5 14.5t22.5 -14.5l626 -1386q7 -13 -2.5 -24.5t-22.5 -11t-20 14.5l-196 439h-813zM305 502h766l-385 848zM500 1686q0 10 7 17t17 7q9 0 17 -7t8 -17q0 -53 39 -90t98 -37q56 0 95.5 37.5t39.5 89.5
q0 24 25 24q9 0 15.5 -7t6.5 -17q0 -74 -53 -125.5t-129 -51.5q-77 0 -131.5 52t-54.5 125z" />
    <glyph glyph-name="abreve" unicode="&#x103;" horiz-adv-x="1132" 
d="M557 -6q-132 0 -243.5 65t-176.5 176.5t-65 243.5q0 131 65 242.5t176.5 176.5t243.5 65q131 0 242 -65t176 -176.5t65 -242.5v-8v-2v-446q0 -10 -6.5 -16.5t-15.5 -6.5q-10 0 -17.5 6.5t-7.5 16.5v247q-59 -125 -176 -200.5t-260 -75.5zM121 479q0 -181 127.5 -308.5
t308.5 -127.5t308.5 127.5t127.5 308.5t-127.5 308.5t-308.5 127.5t-308.5 -127.5t-127.5 -308.5zM371 1196q0 11 7 18t17 7q9 0 17 -7.5t8 -17.5q0 -53 39 -90t98 -37q56 0 95.5 37.5t39.5 89.5q0 25 25 25q9 0 15.5 -7.5t6.5 -17.5q0 -74 -53 -125t-129 -51
q-77 0 -131.5 51.5t-54.5 124.5z" />
    <glyph glyph-name="Aogonek" unicode="&#x104;" horiz-adv-x="1378" 
d="M88 14q-7 -14 -21 -14t-22.5 10.5t-1.5 24.5l623 1386q6 14 20.5 14.5t22.5 -14.5l626 -1386q9 -16 -6 -27q-22 -42 -74 -110q-54 -67 -74 -112t-3 -97q7 -27 33.5 -49t58.5 -31q87 -16 147 49q7 7 18 7.5t17 -5.5q16 -19 2 -37q-67 -67 -149 -67q-25 0 -45 4
q-47 12 -82.5 43t-47.5 71q-8 24 -9 47.5t4.5 45.5t12.5 40.5t21.5 41t26.5 38t31 39.5q26 35 67 101l-190 426h-813zM305 502h766l-385 848z" />
    <glyph glyph-name="aogonek" unicode="&#x105;" horiz-adv-x="1132" 
d="M557 -6q-132 0 -243.5 65t-176.5 176.5t-65 243.5q0 131 65 242.5t176.5 176.5t243.5 65q131 0 242 -65t176 -176.5t65 -242.5v-8v-2v-438q4 -11 -2 -19q0 -2 -2 -2q-25 -50 -75 -114q-54 -68 -74.5 -112.5t-3.5 -96.5q7 -27 33.5 -49t58.5 -31q87 -16 147 49q7 7 18 7.5
t17 -5.5q16 -19 2 -37q-67 -67 -149 -67q-25 0 -45 4q-47 12 -82 43t-47 71q-21 67 3 123t83 129q51 74 71 107v239q-59 -125 -176 -200.5t-260 -75.5zM121 479q0 -181 127.5 -308.5t308.5 -127.5t308.5 127.5t127.5 308.5t-127.5 308.5t-308.5 127.5t-308.5 -127.5
t-127.5 -308.5z" />
    <glyph glyph-name="Cacute" unicode="&#x106;" horiz-adv-x="1333" 
d="M811 -12q-197 0 -365 98t-266 266.5t-98 366.5q0 196 98 363.5t266 265.5t365 98q228 0 408 -125q19 -13 8 -35q-6 -8 -16.5 -10t-18.5 4q-172 117 -381 117q-138 0 -263.5 -54t-216.5 -145t-144.5 -216.5t-53.5 -262.5q0 -138 53.5 -264.5t144.5 -218t216.5 -145.5
t263.5 -54q220 0 401 133q21 14 35 -6q6 -8 5 -18.5t-9 -16.5q-195 -141 -432 -141zM778 1577l56 133q11 21 33 21.5t32 -16t0 -40.5l-76 -116q-7 -14 -21 -14.5t-22.5 9.5t-1.5 23z" />
    <glyph glyph-name="cacute" unicode="&#x107;" horiz-adv-x="937" 
d="M559 -6q-133 0 -245 65t-177 177t-65 245q0 201 142.5 344.5t344.5 143.5q167 0 297 -103q9 -6 10.5 -17t-4.5 -18q-6 -8 -16.5 -9t-18.5 5q-123 93 -268 93q-181 0 -309.5 -129.5t-128.5 -309.5q0 -181 128.5 -309.5t309.5 -128.5q146 0 268 92q17 14 35 -4
q6 -7 4.5 -18t-10.5 -17q-129 -102 -297 -102zM526 1083l56 134q11 21 33 21.5t32 -16t0 -40.5l-76 -117q-7 -14 -21 -14.5t-22.5 9.5t-1.5 23z" />
    <glyph glyph-name="Cdotaccent" unicode="&#x10a;" horiz-adv-x="1333" 
d="M811 -12q-197 0 -365 98t-266 266.5t-98 366.5q0 196 98 363.5t266 265.5t365 98q228 0 408 -125q19 -13 8 -35q-6 -8 -16.5 -10t-18.5 4q-172 117 -381 117q-138 0 -263.5 -54t-216.5 -145t-144.5 -216.5t-53.5 -262.5q0 -138 53.5 -264.5t144.5 -218t216.5 -145.5
t263.5 -54q220 0 401 133q21 14 35 -6q6 -8 5 -18.5t-9 -16.5q-195 -141 -432 -141zM764 1591q0 17 12 29t29 12t29 -12t12 -29t-12 -30t-29 -13t-29 13t-12 30z" />
    <glyph glyph-name="cdotaccent" unicode="&#x10b;" horiz-adv-x="937" 
d="M559 -6q-133 0 -245 65t-177 177t-65 245q0 201 142.5 344.5t344.5 143.5q167 0 297 -103q9 -6 10.5 -17t-4.5 -18q-6 -8 -16.5 -9t-18.5 5q-123 93 -268 93q-181 0 -309.5 -129.5t-128.5 -309.5q0 -181 128.5 -309.5t309.5 -128.5q146 0 268 92q17 14 35 -4
q6 -7 4.5 -18t-10.5 -17q-129 -102 -297 -102zM512 1098q0 17 12 29t29 12t29 -12t12 -29t-12 -30t-29 -13t-29 13t-12 30z" />
    <glyph glyph-name="Ccaron" unicode="&#x10c;" horiz-adv-x="1333" 
d="M811 -12q-197 0 -365 98t-266 266.5t-98 366.5q0 196 98 363.5t266 265.5t365 98q228 0 408 -125q19 -13 8 -35q-6 -8 -16.5 -10t-18.5 4q-172 117 -381 117q-138 0 -263.5 -54t-216.5 -145t-144.5 -216.5t-53.5 -262.5q0 -138 53.5 -264.5t144.5 -218t216.5 -145.5
t263.5 -54q220 0 401 133q21 14 35 -6q6 -8 5 -18.5t-9 -16.5q-195 -141 -432 -141zM631 1712q-12 12 0 33q4 4 16 4q15 0 19 -6l139 -160l147 160q12 12 31 2q16 -16 2 -33l-162 -178q-3 -8 -18 -8q-11 0 -14 8z" />
    <glyph glyph-name="ccaron" unicode="&#x10d;" horiz-adv-x="937" 
d="M559 -6q-133 0 -245 65t-177 177t-65 245q0 201 142.5 344.5t344.5 143.5q167 0 297 -103q9 -6 10.5 -17t-4.5 -18q-6 -8 -16.5 -9t-18.5 5q-123 93 -268 93q-181 0 -309.5 -129.5t-128.5 -309.5q0 -181 128.5 -309.5t309.5 -128.5q146 0 268 92q17 14 35 -4
q6 -7 4.5 -18t-10.5 -17q-129 -102 -297 -102zM379 1219q-12 12 0 32q4 4 16 4q15 0 19 -6l139 -159l147 159q12 12 31 2q15 -15 2 -32l-162 -179q-3 -8 -18 -8q-11 0 -14 8z" />
    <glyph glyph-name="Dcaron" unicode="&#x10e;" horiz-adv-x="1345" 
d="M567 1434q146 0 279 -56.5t229 -152.5t152.5 -229t56.5 -279q0 -145 -56.5 -277.5t-152.5 -229t-229 -153.5t-279 -57h-397q-12 0 -19.5 7.5t-7.5 19.5v1380v6q0 8 8 14.5t19 6.5h397zM190 53l377 -6q183 0 337.5 90.5t243.5 244.5t89 335q0 137 -52.5 261t-142 213
t-214 142t-261.5 53h-377v-1333zM367 1661q-12 12 0 33q4 4 16 4q14 0 18 -6l140 -160l147 160q12 12 31 2q16 -16 2 -33l-162 -178q-3 -8 -18 -8q-12 0 -15 8z" />
    <glyph glyph-name="dcaron" unicode="&#x10f;" horiz-adv-x="1132" 
d="M547 963q142 0 259 -76t177 -201v725q0 10 7.5 16.5t17.5 6.5q9 0 15.5 -6.5t6.5 -16.5v-924v-2v-8q0 -199 -142 -341t-341 -142q-132 0 -244 65t-177 176t-65 242q0 99 38.5 189t103.5 155t155 103.5t189 38.5zM111 477q0 -181 127.5 -308.5t308.5 -127.5t308.5 127.5
t127.5 308.5t-127.5 308.5t-308.5 127.5t-308.5 -127.5t-127.5 -308.5zM373 1618q-12 12 0 33q4 4 16 4q15 0 19 -6l139 -160l147 160q12 12 31 2q16 -16 2 -33l-162 -178q-3 -8 -18 -8q-12 0 -15 8z" />
    <glyph glyph-name="Dcroat" unicode="&#x110;" horiz-adv-x="1468" 
d="M670 1434q195 0 360 -96t260.5 -261t95.5 -360q0 -145 -56.5 -277.5t-152 -229t-228.5 -153.5t-279 -57h-398q-26 0 -26 27v694h-180q-10 0 -17.5 8t-7.5 19q0 9 7.5 16.5t17.5 7.5h180v635v6q0 8 7.5 14.5t18.5 6.5h398zM293 53l377 -6q137 0 261.5 53.5t213.5 143.5
t141.5 214t52.5 259q0 183 -89 336.5t-243 243t-337 89.5h-377v-614h364q10 0 17.5 -7.5t7.5 -16.5q0 -11 -7.5 -19t-17.5 -8h-364v-668z" />
    <glyph glyph-name="dcroat" unicode="&#x111;" horiz-adv-x="1228" 
d="M547 963q142 0 259 -76t177 -201v514h-365q-10 0 -17 8t-7 19q0 9 7 16.5t17 7.5h365v160q0 10 7.5 16.5t17.5 6.5q9 0 15.5 -6.5t6.5 -16.5v-160h119q10 0 17.5 -7.5t7.5 -16.5q0 -11 -7.5 -19t-17.5 -8h-119v-713v-2v-8q0 -199 -142 -341t-341 -142q-132 0 -244 65
t-177 176t-65 242q0 99 38.5 189t103.5 155t155 103.5t189 38.5zM111 477q0 -181 127.5 -308.5t308.5 -127.5t308.5 127.5t127.5 308.5t-127.5 308.5t-308.5 127.5t-308.5 -127.5t-127.5 -308.5z" />
    <glyph glyph-name="Emacron" unicode="&#x112;" horiz-adv-x="1130" 
d="M1022 49q11 0 19 -7t8 -17t-8 -17.5t-19 -7.5h-854q-9 0 -17 7.5t-8 17.5v1384q0 9 8 17t17 8h854q10 0 18.5 -8t8.5 -17q0 -10 -8 -17.5t-19 -7.5h-829v-643h729q9 0 16.5 -7t7.5 -17t-7.5 -17.5t-16.5 -7.5h-729v-643h829zM487 1575q-14 0 -19.5 11.5t0 23.5t19.5 12
h232q22 0 23 -23.5t-23 -23.5h-232z" />
    <glyph glyph-name="emacron" unicode="&#x113;" horiz-adv-x="1103" 
d="M520 4q-194 17 -321 153t-127 326q0 198 141 339t340 141q130 0 240.5 -64.5t174.5 -175t64 -240.5q0 -9 -7.5 -16.5t-16.5 -7.5h-887q9 -163 120.5 -276t282.5 -130q243 -28 404 148q6 6 16.5 6.5t18.5 -6.5q17 -14 2 -33q-81 -96 -196.5 -135.5t-248.5 -28.5zM121 508
h862q-11 170 -135 288.5t-295 118.5t-296 -119t-136 -288zM438 1083q-14 0 -19.5 11.5t0 23.5t19.5 12h232q22 0 23 -23.5t-23 -23.5h-232z" />
    <glyph glyph-name="Edotaccent" unicode="&#x116;" horiz-adv-x="1130" 
d="M1022 49q11 0 19 -7t8 -17t-8 -17.5t-19 -7.5h-854q-9 0 -17 7.5t-8 17.5v1384q0 9 8 17t17 8h854q10 0 18.5 -8t8.5 -17q0 -10 -8 -17.5t-19 -7.5h-829v-643h729q9 0 16.5 -7t7.5 -17t-7.5 -17.5t-16.5 -7.5h-729v-643h829zM561 1581q0 17 12 29t29 12t29 -12t12 -29
t-12 -30t-29 -13t-29 13t-12 30z" />
    <glyph glyph-name="edotaccent" unicode="&#x117;" horiz-adv-x="1103" 
d="M520 4q-194 17 -321 153t-127 326q0 198 141 339t340 141q130 0 240.5 -64.5t174.5 -175t64 -240.5q0 -9 -7.5 -16.5t-16.5 -7.5h-887q9 -163 120.5 -276t282.5 -130q243 -28 404 148q6 6 16.5 6.5t18.5 -6.5q17 -14 2 -33q-81 -96 -196.5 -135.5t-248.5 -28.5zM121 508
h862q-11 170 -135 288.5t-295 118.5t-296 -119t-136 -288zM512 1090q0 17 12 28.5t29 11.5t29 -11.5t12 -28.5t-12 -30t-29 -13t-29 13t-12 30z" />
    <glyph glyph-name="Eogonek" unicode="&#x118;" horiz-adv-x="1130" 
d="M1022 49q11 0 19 -7t8 -17t-8 -17.5t-19 -7.5h-111q-35 -59 -71 -104q-54 -68 -74.5 -112.5t-3.5 -96.5q7 -27 33.5 -49t58.5 -31q87 -16 147 49q7 7 18 7.5t17 -5.5q16 -19 2 -37q-67 -67 -149 -67q-25 0 -45 4q-47 12 -82 43t-47 71q-21 67 3 123t83 129q9 13 27 38.5
t26 37.5h-686q-9 0 -17 7.5t-8 17.5v1384q0 9 8 17t17 8h854q10 0 18.5 -8t8.5 -17q0 -10 -8 -17.5t-19 -7.5h-829v-643h729q9 0 16.5 -7t7.5 -17t-7.5 -17.5t-16.5 -7.5h-729v-643h829z" />
    <glyph glyph-name="eogonek" unicode="&#x119;" horiz-adv-x="1103" 
d="M520 4q-194 17 -321 153t-127 326q0 198 141 339t340 141q130 0 240.5 -64.5t174.5 -175t64 -240.5q0 -9 -7.5 -16.5t-16.5 -7.5h-887q9 -163 120.5 -276t282.5 -130q243 -28 404 148q6 6 16.5 6.5t18.5 -6.5q17 -14 2 -33q-128 -148 -332 -164q-32 -53 -74 -108
q-54 -68 -74.5 -112.5t-3.5 -96.5q7 -27 33.5 -49t58.5 -31q88 -16 148 49q7 7 18 7.5t17 -5.5q16 -19 2 -37q-67 -67 -150 -67q-25 0 -45 4q-47 12 -82 43t-47 71q-21 67 3 123t83 129q7 11 25 36.5t28 41.5q-35 0 -53 2zM121 508h862q-11 170 -135 288.5t-295 118.5
t-296 -119t-136 -288z" />
    <glyph glyph-name="Ecaron" unicode="&#x11a;" horiz-adv-x="1130" 
d="M1022 49q11 0 19 -7t8 -17t-8 -17.5t-19 -7.5h-854q-9 0 -17 7.5t-8 17.5v1384q0 9 8 17t17 8h854q10 0 18.5 -8t8.5 -17q0 -10 -8 -17.5t-19 -7.5h-829v-643h729q9 0 16.5 -7t7.5 -17t-7.5 -17.5t-16.5 -7.5h-729v-643h829zM428 1702q-12 12 0 33q4 4 16 4q15 0 19 -6
l139 -160l148 160q11 11 30 2q16 -16 2 -33l-161 -178q-3 -8 -19 -8q-11 0 -14 8z" />
    <glyph glyph-name="ecaron" unicode="&#x11b;" horiz-adv-x="1103" 
d="M520 4q-194 17 -321 153t-127 326q0 198 141 339t340 141q130 0 240.5 -64.5t174.5 -175t64 -240.5q0 -9 -7.5 -16.5t-16.5 -7.5h-887q9 -163 120.5 -276t282.5 -130q243 -28 404 148q6 6 16.5 6.5t18.5 -6.5q17 -14 2 -33q-81 -96 -196.5 -135.5t-248.5 -28.5zM121 508
h862q-11 170 -135 288.5t-295 118.5t-296 -119t-136 -288zM379 1210q-12 12 0 33q4 4 16 4q15 0 19 -6l139 -160l147 160q12 12 31 2q16 -16 2 -33l-162 -178q-3 -8 -18 -8q-11 0 -14 8z" />
    <glyph glyph-name="Gbreve" unicode="&#x11e;" horiz-adv-x="1349" 
d="M811 -12q-198 0 -366 97.5t-265.5 264.5t-97.5 363q0 148 57.5 283t155.5 233t233 155.5t283 57.5q215 0 406 -123q7 -4 10 -17t-2 -20q-19 -19 -35 -6q-170 115 -379 115q-138 0 -263.5 -53.5t-216.5 -144t-144.5 -216t-53.5 -264.5q0 -137 53.5 -262t144.5 -216.5
t216.5 -145.5t263.5 -54q206 0 389 127v526h-448q-9 0 -16 7.5t-7 17.5q0 11 7 19.5t16 8.5h473q9 0 15.5 -8.5t6.5 -19.5v-566q0 -13 -10 -18q-187 -141 -426 -141zM625 1729q0 11 6.5 17.5t17.5 6.5q9 0 17 -7t8 -17q0 -53 39 -90t98 -37q56 0 95.5 37.5t39.5 89.5
q0 24 25 24q9 0 15.5 -7t6.5 -17q0 -74 -53 -125.5t-129 -51.5q-77 0 -131.5 52t-54.5 125z" />
    <glyph glyph-name="gbreve" unicode="&#x11f;" horiz-adv-x="1138" 
d="M555 -4q-199 0 -341 142t-142 341q0 198 142 340t341 142q130 0 241 -65t175.5 -176t64.5 -241v-407q0 -190 -127.5 -327t-324.5 -157q-9 0 -33.5 -1t-38.5 -1q-167 0 -291 95q-19 13 -6 30q6 9 16.5 11t18.5 -5q137 -100 332 -77q178 17 290.5 138t112.5 294v190
q-61 -120 -176.5 -193t-253.5 -73zM121 479q0 -180 127 -306t307 -126q179 0 304.5 126t125.5 306q0 179 -126 305.5t-304 126.5q-180 0 -307 -126.5t-127 -305.5zM369 1237q0 11 7 18t17 7q9 0 17 -7.5t8 -17.5q0 -53 39 -90t98 -37q56 0 95.5 37.5t39.5 89.5q0 25 25 25
q9 0 15.5 -7.5t6.5 -17.5q0 -74 -53 -125t-129 -51q-77 0 -131.5 51.5t-54.5 124.5z" />
    <glyph glyph-name="Gdotaccent" unicode="&#x120;" horiz-adv-x="1349" 
d="M811 -12q-198 0 -366 97.5t-265.5 264.5t-97.5 363q0 148 57.5 283t155.5 233t233 155.5t283 57.5q215 0 406 -123q7 -4 10 -17t-2 -20q-19 -19 -35 -6q-170 115 -379 115q-138 0 -263.5 -53.5t-216.5 -144t-144.5 -216t-53.5 -264.5q0 -137 53.5 -262t144.5 -216.5
t216.5 -145.5t263.5 -54q206 0 389 127v526h-448q-9 0 -16 7.5t-7 17.5q0 11 7 19.5t16 8.5h473q9 0 15.5 -8.5t6.5 -19.5v-566q0 -13 -10 -18q-187 -141 -426 -141zM770 1579q0 17 12 29t29 12t29 -12t12 -29t-12 -30t-29 -13t-29 13t-12 30z" />
    <glyph glyph-name="gdotaccent" unicode="&#x121;" horiz-adv-x="1138" 
d="M555 -4q-199 0 -341 142t-142 341q0 198 142 340t341 142q130 0 241 -65t175.5 -176t64.5 -241v-407q0 -190 -127.5 -327t-324.5 -157q-9 0 -33.5 -1t-38.5 -1q-167 0 -291 95q-19 13 -6 30q6 9 16.5 11t18.5 -5q137 -100 332 -77q178 17 290.5 138t112.5 294v190
q-61 -120 -176.5 -193t-253.5 -73zM121 479q0 -180 127 -306t307 -126q179 0 304.5 126t125.5 306q0 179 -126 305.5t-304 126.5q-180 0 -307 -126.5t-127 -305.5zM514 1087q0 17 12 29t29 12t29 -12t12 -29t-12 -30t-29 -13t-29 13t-12 30z" />
    <glyph glyph-name="uni0122" unicode="&#x122;" horiz-adv-x="1349" 
d="M811 -12q-198 0 -366 97.5t-265.5 264.5t-97.5 363q0 148 57.5 283t155.5 233t233 155.5t283 57.5q215 0 406 -123q7 -4 10 -17t-2 -20q-19 -19 -35 -6q-170 115 -379 115q-138 0 -263.5 -53.5t-216.5 -144t-144.5 -216t-53.5 -264.5q0 -137 53.5 -262t144.5 -216.5
t216.5 -145.5t263.5 -54q206 0 389 127v526h-448q-9 0 -16 7.5t-7 17.5q0 11 7 19.5t16 8.5h473q9 0 15.5 -8.5t6.5 -19.5v-566q0 -13 -10 -18q-187 -141 -426 -141zM707 -205l55 133q9 20 30 21t34 -16t1 -39l-75 -117q-7 -14 -20.5 -15t-22 9t-2.5 24z" />
    <glyph glyph-name="uni0123" unicode="&#x123;" horiz-adv-x="1138" 
d="M555 -4q-199 0 -341 142t-142 341q0 198 142 340t341 142q130 0 241 -65t175.5 -176t64.5 -241v-407q0 -190 -127.5 -327t-324.5 -157q-9 0 -33.5 -1t-38.5 -1q-167 0 -291 95q-19 13 -6 30q6 9 16.5 11t18.5 -5q137 -100 332 -77q178 17 290.5 138t112.5 294v190
q-61 -120 -176.5 -193t-253.5 -73zM121 479q0 -180 127 -306t307 -126q179 0 304.5 126t125.5 306q0 179 -126 305.5t-304 126.5q-180 0 -307 -126.5t-127 -305.5zM520 1120l76 117q7 14 21 14.5t22.5 -9.5t1.5 -23l-55 -134q-11 -21 -33 -22t-34 16.5t1 40.5z" />
    <glyph glyph-name="Hbar" unicode="&#x126;" horiz-adv-x="1306" 
d="M1153 1436q9 0 17 -8.5t8 -18.5v-219h84q10 0 17 -8t7 -17q0 -11 -7 -18.5t-17 -7.5h-84v-1114q0 -11 -8 -19t-17 -8q-11 0 -19 7.5t-8 19.5v659h-925v-659q0 -12 -8 -19.5t-19 -7.5t-17.5 7.5t-6.5 19.5v1114h-105q-10 0 -17.5 7.5t-7.5 18.5q0 9 7.5 17t17.5 8h105v219
q0 11 7 19t17 8t18.5 -8t8.5 -19v-219h925v219q0 11 8 19t19 8zM201 735h925v404h-925v-404z" />
    <glyph glyph-name="hbar" unicode="&#x127;" horiz-adv-x="1034" 
d="M127 0q-11 0 -18 7t-7 18v1157h-108q-10 0 -17.5 7.5t-7.5 18.5q0 9 7.5 17t17.5 8h108v176q0 11 7 18t18 7t18 -7t7 -18v-176h331q10 0 17.5 -8t7.5 -17q0 -11 -7.5 -18.5t-17.5 -7.5h-331v-432q53 98 151 157.5t215 59.5q171 0 292.5 -121.5t121.5 -292.5v-528
q0 -11 -7 -18t-18 -7q-10 0 -17 7t-7 18v528q0 151 -107 258t-258 107q-152 0 -259 -107t-107 -258v-528q0 -11 -7 -18t-18 -7z" />
    <glyph glyph-name="Itilde" unicode="&#x128;" horiz-adv-x="296" 
d="M147 -2q-9 0 -16.5 7.5t-7.5 17.5v1390q0 10 7.5 17.5t16.5 7.5q11 0 19 -7.5t8 -17.5v-1390q0 -10 -8 -17.5t-19 -7.5zM-51 1614q-4 21 16 28q9 3 19.5 -2t13.5 -14q14 -47 61 -47q15 0 38 20.5t51.5 41t58.5 20.5q40 0 70.5 -23.5t39.5 -60.5q3 -14 -3 -22.5t-15 -10.5
t-18.5 3.5t-12.5 17.5q-4 23 -21 37t-40 14q-17 0 -42 -20.5t-53 -41t-53 -20.5q-42 0 -71.5 21t-38.5 59z" />
    <glyph glyph-name="itilde" unicode="&#x129;" horiz-adv-x="253" 
d="M127 0q-11 0 -18 7t-7 18v915q0 10 7 17.5t18 7.5q9 0 17 -7.5t8 -17.5v-915q0 -10 -8 -17.5t-17 -7.5zM-72 1143q-4 21 17 28q9 3 19 -2t13 -14q6 -21 22.5 -34t39.5 -13q15 0 37.5 20.5t51 41t58.5 20.5q40 0 71 -23.5t40 -60.5q3 -14 -3 -22.5t-15 -10.5t-18.5 3.5
t-12.5 17.5q-4 23 -21.5 37t-40.5 14q-20 0 -68 -41t-79 -41q-42 0 -72 21t-39 59z" />
    <glyph glyph-name="Imacron" unicode="&#x12a;" horiz-adv-x="296" 
d="M147 -2q-9 0 -16.5 7.5t-7.5 17.5v1390q0 10 7.5 17.5t16.5 7.5q11 0 19 -7.5t8 -17.5v-1390q0 -10 -8 -17.5t-19 -7.5zM12 1559q-14 0 -19.5 11.5t0 23.5t19.5 12h273q22 0 23 -23.5t-23 -23.5h-273z" />
    <glyph glyph-name="imacron" unicode="&#x12b;" horiz-adv-x="253" 
d="M127 0q-11 0 -18 7t-7 18v915q0 10 7 17.5t18 7.5q9 0 17 -7.5t8 -17.5v-915q0 -10 -8 -17.5t-17 -7.5zM-8 1087q-14 0 -19.5 12t0 24t19.5 12h272q22 0 23 -24t-23 -24h-272z" />
    <glyph glyph-name="Iogonek" unicode="&#x12e;" horiz-adv-x="296" 
d="M143 -444q-25 0 -45 4q-47 12 -82 43t-47 71q-21 67 3 123t83 129q26 35 68 99v1388q0 10 7.5 17.5t16.5 7.5q11 0 19 -7.5t8 -17.5v-1380q3 -6 0 -15l-6 -12q-32 -53 -74 -108q-54 -68 -74.5 -112.5t-3.5 -96.5q7 -27 34 -49t59 -31q87 -16 147 49q7 7 18 7.5t17 -5.5
q16 -19 2 -37q-67 -67 -150 -67z" />
    <glyph glyph-name="iogonek" unicode="&#x12f;" horiz-adv-x="253" 
d="M127 1051q-17 0 -29 13t-12 30t12 29t29 12t29 -12t12 -29t-12 -30t-29 -13zM-53 -326q-21 67 3 123t83 129q46 66 69 103v911q0 10 7 17.5t18 7.5q9 0 17 -7.5t8 -17.5v-907q4 -11 -2 -19q-30 -53 -78 -116q-54 -68 -74.5 -112.5t-3.5 -96.5q7 -27 33.5 -49t58.5 -31
q87 -16 147 49q7 7 18 7.5t17 -5.5q16 -19 2 -37q-67 -67 -149 -67q-25 0 -45 4q-47 12 -82 43t-47 71z" />
    <glyph glyph-name="Idotaccent" unicode="&#x130;" horiz-adv-x="296" 
d="M147 -2q-9 0 -16.5 7.5t-7.5 17.5v1390q0 10 7.5 17.5t16.5 7.5q11 0 19 -7.5t8 -17.5v-1390q0 -10 -8 -17.5t-19 -7.5zM106 1565q0 17 12 29t29 12t29 -12t12 -29t-12 -30t-29 -13t-29 13t-12 30z" />
    <glyph glyph-name="dotlessi" unicode="&#x131;" horiz-adv-x="253" 
d="M127 0q-11 0 -18 7t-7 18v915q0 10 7 17.5t18 7.5q9 0 17 -7.5t8 -17.5v-915q0 -10 -8 -17.5t-17 -7.5z" />
    <glyph glyph-name="uni0136" unicode="&#x136;" horiz-adv-x="1142" 
d="M1096 41q7 -8 6.5 -18.5t-8.5 -16.5q-6 -6 -17 -6q-10 0 -18 8l-631 731l-256 -284v-430q0 -11 -7 -18t-18 -7q-10 0 -17 7t-7 18v1384q0 11 7 18t17 7q11 0 18 -7t7 -18v-881l825 897q6 7 17 7.5t18 -5.5q16 -16 2 -34l-573 -617zM457 -205l55 133q9 20 30.5 21
t34.5 -16t1 -39l-76 -117q-7 -14 -20.5 -15t-22 9t-2.5 24z" />
    <glyph glyph-name="uni0137" unicode="&#x137;" horiz-adv-x="868" 
d="M127 0q-9 0 -17 8t-8 17v1384q0 10 8 17.5t17 7.5t17 -7.5t8 -17.5v-928l616 471q21 17 35 -4q6 -9 3.5 -19t-11.5 -16l-459 -350l459 -524q12 -19 -2 -33q-9 -6 -17 -6q-10 0 -18 8l-463 522l-143 -108v-397q0 -9 -8 -17t-17 -8zM63 -205l56 133q9 20 30 21t34 -16
t1 -39l-75 -117q-7 -14 -20.5 -15t-22.5 9t-3 24z" />
    <glyph glyph-name="Lacute" unicode="&#x139;" horiz-adv-x="1124" 
d="M166 0q-9 0 -16 7t-7 16v1388q0 9 7 16t16 7q11 0 19 -7t8 -16v-1362h847q23 0 23 -26q0 -9 -7 -16t-16 -7h-874zM143 1550l56 133q11 21 33 22t32 -15.5t0 -40.5l-76 -117q-7 -14 -21 -14.5t-22.5 9.5t-1.5 23z" />
    <glyph glyph-name="lacute" unicode="&#x13a;" horiz-adv-x="612" 
d="M528 0q-200 0 -313 121t-113 332v958q0 9 7.5 16t17.5 7q9 0 17 -7t8 -16v-958q0 -192 98 -298t278 -106q10 0 16.5 -7.5t6.5 -16.5q0 -10 -6.5 -17.5t-16.5 -7.5zM98 1546l56 133q11 21 33 22t32 -15.5t0 -40.5l-76 -117q-7 -14 -21 -14.5t-22.5 9.5t-1.5 23z" />
    <glyph glyph-name="uni013B" unicode="&#x13b;" horiz-adv-x="1124" 
d="M166 0q-9 0 -16 7t-7 16v1388q0 9 7 16t16 7q11 0 19 -7t8 -16v-1362h847q23 0 23 -26q0 -9 -7 -16t-16 -7h-874zM469 -205l55 133q9 20 30.5 21t34.5 -16t1 -39l-76 -117q-7 -14 -20.5 -15t-22 9t-2.5 24z" />
    <glyph glyph-name="uni013C" unicode="&#x13c;" horiz-adv-x="612" 
d="M528 0q-200 0 -313 121t-113 332v958q0 9 7.5 16t17.5 7q9 0 17 -7t8 -16v-958q0 -192 98 -298t278 -106q10 0 16.5 -7.5t6.5 -16.5q0 -10 -6.5 -17.5t-16.5 -7.5zM225 -205l56 133q9 20 30 21t34 -16t1 -39l-76 -117q-7 -14 -20.5 -15t-22 9t-2.5 24z" />
    <glyph glyph-name="Lcaron" unicode="&#x13d;" horiz-adv-x="1124" 
d="M166 0q-9 0 -16 7t-7 16v1388q0 9 7 16t16 7q11 0 19 -7t8 -16v-1362h847q23 0 23 -26q0 -9 -7 -16t-16 -7h-874zM-4 1686q-12 12 0 32q4 4 16 4q15 0 19 -6l139 -160l147 160q12 12 31 2q15 -15 2 -32l-162 -179q-3 -8 -18 -8q-11 0 -14 8z" />
    <glyph glyph-name="lcaron" unicode="&#x13e;" horiz-adv-x="612" 
d="M528 0q-200 0 -313 121t-113 332v958q0 9 7.5 16t17.5 7q9 0 17 -7t8 -16v-958q0 -192 98 -298t278 -106q10 0 16.5 -7.5t6.5 -16.5q0 -10 -6.5 -17.5t-16.5 -7.5zM-49 1702q-12 12 0 33q4 4 16 4q15 0 19 -6l139 -160l147 160q12 12 31 2q16 -16 2 -33l-162 -178
q-3 -8 -18 -8q-11 0 -14 8z" />
    <glyph glyph-name="Lslash" unicode="&#x141;" horiz-adv-x="1251" 
d="M231 0q-9 0 -15.5 7t-6.5 16v763l-146 -145q-19 -15 -36 2q-6 6 -6 16.5t6 18.5l182 182v551q0 9 6.5 16t15.5 7q11 0 19 -7t8 -16v-502l188 189q7 6 18 6t17 -6q7 -7 7.5 -18.5t-5.5 -18.5l-225 -225v-787h848q22 0 22 -26q0 -9 -6.5 -16t-15.5 -7h-875z" />
    <glyph glyph-name="lslash" unicode="&#x142;" horiz-adv-x="591" 
d="M508 0q-200 0 -313 121t-113 332v428l-62 -62q-19 -15 -36 2q-6 6 -6 16.5t6 18.5l98 98v457q0 9 7 16t17 7q9 0 17 -7t8 -16v-407l92 92q7 6 18 6t17 -6q7 -7 7.5 -18.5t-5.5 -18.5l-129 -129v-477q0 -192 98.5 -298t278.5 -106q10 0 16 -7t6 -17t-6 -17.5t-16 -7.5z
" />
    <glyph glyph-name="Nacute" unicode="&#x143;" horiz-adv-x="1415" 
d="M166 0q-9 0 -16 7.5t-7 19.5v1384q0 8 5 15t12 8q15 6 28 -7l1035 -1329v1313q0 10 6.5 17.5t15.5 7.5q12 0 19.5 -7t7.5 -18v-1384q0 -22 -17 -25q-2 -2 -10 -2q-11 0 -18 10l-1034 1327v-1310q0 -12 -7.5 -19.5t-19.5 -7.5zM678 1505l55 133q11 21 33 22t34 -16t-1 -40
l-76 -117q-7 -14 -21 -14.5t-22.5 9.5t-1.5 23z" />
    <glyph glyph-name="nacute" unicode="&#x144;" 
d="M117 0q-11 0 -18 7t-7 18v528q0 172 122 293t294 121q171 0 292.5 -121.5t121.5 -292.5v-528q0 -11 -7 -18t-18 -7t-18 7t-7 18v528q0 151 -106.5 258t-257.5 107q-152 0 -259.5 -107t-107.5 -258v-528q0 -11 -7 -18t-17 -7zM481 1079l56 133q11 21 33 22t32 -15.5
t0 -40.5l-76 -117q-7 -14 -21 -14.5t-22.5 9.5t-1.5 23z" />
    <glyph glyph-name="uni0145" unicode="&#x145;" horiz-adv-x="1415" 
d="M166 0q-9 0 -16 7.5t-7 19.5v1384q0 8 5 15t12 8q15 6 28 -7l1035 -1329v1313q0 10 6.5 17.5t15.5 7.5q12 0 19.5 -7t7.5 -18v-1384q0 -22 -17 -25q-2 -2 -10 -2q-11 0 -18 10l-1034 1327v-1310q0 -12 -7.5 -19.5t-19.5 -7.5zM604 -205l55 133q9 20 30.5 21t34.5 -16
t1 -39l-76 -117q-7 -14 -20.5 -15t-22 9t-2.5 24z" />
    <glyph glyph-name="uni0146" unicode="&#x146;" 
d="M117 0q-11 0 -18 7t-7 18v528q0 172 122 293t294 121q171 0 292.5 -121.5t121.5 -292.5v-528q0 -11 -7 -18t-18 -7t-18 7t-7 18v528q0 151 -106.5 258t-257.5 107q-152 0 -259.5 -107t-107.5 -258v-528q0 -11 -7 -18t-17 -7zM403 -205l56 133q9 20 30 21t34 -16t1 -39
l-75 -117q-7 -14 -20.5 -15t-22.5 9t-3 24z" />
    <glyph glyph-name="Ncaron" unicode="&#x147;" horiz-adv-x="1415" 
d="M166 0q-9 0 -16 7.5t-7 19.5v1384q0 8 5 15t12 8q15 6 28 -7l1035 -1329v1313q0 10 6.5 17.5t15.5 7.5q12 0 19.5 -7t7.5 -18v-1384q0 -22 -17 -25q-2 -2 -10 -2q-11 0 -18 10l-1034 1327v-1310q0 -12 -7.5 -19.5t-19.5 -7.5zM530 1640q-12 12 0 33q4 4 17 4q14 0 18 -6
l140 -160l147 160q12 12 31 2q16 -16 2 -33l-162 -178q-3 -8 -18 -8q-12 0 -15 8z" />
    <glyph glyph-name="ncaron" unicode="&#x148;" 
d="M117 0q-11 0 -18 7t-7 18v528q0 172 122 293t294 121q171 0 292.5 -121.5t121.5 -292.5v-528q0 -11 -7 -18t-18 -7t-18 7t-7 18v528q0 151 -106.5 258t-257.5 107q-152 0 -259.5 -107t-107.5 -258v-528q0 -11 -7 -18t-17 -7zM334 1214q-12 12 0 33q4 4 16 4q15 0 19 -6
l139 -160l147 160q12 12 31 2q16 -16 2 -33l-162 -178q-3 -8 -18 -8q-11 0 -14 8z" />
    <glyph glyph-name="Eng" unicode="&#x14a;" horiz-adv-x="1456" 
d="M186 0q-9 0 -15.5 7.5t-6.5 19.5v1384q0 20 16 23q16 6 29 -7l1034 -1329v1313q0 10 7 17.5t16 7.5q12 0 19 -7t7 -18v-1386q0 -230 -126 -358t-359 -128q-12 0 -19.5 7.5t-7.5 19.5q0 9 7.5 15.5t19.5 6.5h35q76 0 144.5 23.5t127.5 71.5t94.5 132.5t36.5 196.5
l-1032 1325v-1310q0 -12 -7.5 -19.5t-19.5 -7.5z" />
    <glyph glyph-name="eng" unicode="&#x14b;" horiz-adv-x="1034" 
d="M127 0q-11 0 -18 7t-7 18v528q0 172 122 293t294 121q171 0 292.5 -121.5t121.5 -292.5v-473q0 -234 -129 -362t-367 -128q-26 0 -26 27q0 10 7.5 17.5t18.5 7.5h35q62 0 119.5 13.5t111.5 46.5t93.5 82t63.5 125t24 171v473q0 151 -107 258t-258 107q-152 0 -259 -107
t-107 -258v-528q0 -11 -7 -18t-18 -7z" />
    <glyph glyph-name="Omacron" unicode="&#x14c;" horiz-adv-x="1628" 
d="M815 -12q-148 0 -284 58t-234 156t-156.5 233.5t-58.5 283.5t58.5 283.5t156.5 233.5t234 156t284 58q197 0 365.5 -98t267 -266.5t98.5 -366.5t-98.5 -366.5t-267 -266.5t-365.5 -98zM133 719q0 -111 34.5 -214.5t97.5 -187.5t146.5 -147.5t188 -98t215.5 -34.5
q138 0 264 54t217 145.5t145 218t54 264.5t-54 264.5t-145 218t-217 145.5t-264 54q-111 0 -215.5 -34.5t-188 -98t-146.5 -147.5t-97.5 -187.5t-34.5 -214.5zM700 1559q-14 0 -19.5 11.5t0 23.5t19.5 12h232q22 0 23 -23.5t-23 -23.5h-232z" />
    <glyph glyph-name="omacron" unicode="&#x14d;" horiz-adv-x="1091" 
d="M547 -6q-132 0 -244 65t-177 176.5t-65 243.5q0 131 65 242.5t177 176.5t244 65q131 0 242 -65t176 -176.5t65 -242.5q0 -132 -65 -243.5t-176 -176.5t-242 -65zM111 479q0 -181 127.5 -308.5t308.5 -127.5t308.5 127.5t127.5 308.5t-127.5 308.5t-308.5 127.5
t-308.5 -127.5t-127.5 -308.5zM428 1092q-14 0 -19.5 12t0 23.5t19.5 11.5h231q22 0 23 -23.5t-23 -23.5h-231z" />
    <glyph glyph-name="Ohungarumlaut" unicode="&#x150;" horiz-adv-x="1628" 
d="M815 -12q-148 0 -284 58t-234 156t-156.5 233.5t-58.5 283.5t58.5 283.5t156.5 233.5t234 156t284 58q197 0 365.5 -98t267 -266.5t98.5 -366.5t-98.5 -366.5t-267 -266.5t-365.5 -98zM133 719q0 -111 34.5 -214.5t97.5 -187.5t146.5 -147.5t188 -98t215.5 -34.5
q138 0 264 54t217 145.5t145 218t54 264.5t-54 264.5t-145 218t-217 145.5t-264 54q-111 0 -215.5 -34.5t-188 -98t-146.5 -147.5t-97.5 -187.5t-34.5 -214.5zM729 1569l53 129q11 21 34 21.5t33 -16t-1 -40.5l-74 -113q-10 -15 -22.5 -15.5t-20.5 11t-2 23.5zM856 1569
l53 129q11 21 33 22t34 -16.5t-1 -40.5l-74 -113q-10 -15 -22.5 -15.5t-20.5 11t-2 23.5z" />
    <glyph glyph-name="ohungarumlaut" unicode="&#x151;" horiz-adv-x="1091" 
d="M547 -6q-132 0 -244 65t-177 176.5t-65 243.5q0 131 65 242.5t177 176.5t244 65q131 0 242 -65t176 -176.5t65 -242.5q0 -132 -65 -243.5t-176 -176.5t-242 -65zM111 479q0 -181 127.5 -308.5t308.5 -127.5t308.5 127.5t127.5 308.5t-127.5 308.5t-308.5 127.5
t-308.5 -127.5t-127.5 -308.5zM457 1102l53 129q11 21 33.5 21.5t32.5 -16t-1 -40.5l-73 -113q-10 -15 -22.5 -15.5t-20.5 11t-2 23.5zM584 1102l53 129q11 21 33 21.5t32 -16t0 -40.5l-73 -113q-10 -15 -22.5 -15.5t-20.5 11t-2 23.5z" />
    <glyph glyph-name="OE" unicode="&#x152;" horiz-adv-x="2461" 
d="M815 -12q-148 0 -284 58t-234 156t-156.5 233.5t-58.5 283.5t58.5 283.5t156.5 233.5t234 156t284 58q227 0 412 -128.5t268 -334.5v422q0 9 8 17t17 8h854q10 0 18 -8t8 -17q0 -10 -7.5 -17.5t-18.5 -7.5h-830v-610q0 -5 1 -16.5t1 -16.5h727q9 0 17 -7t8 -17t-8 -17.5
t-17 -7.5h-727q0 -5 -1 -14t-1 -14v-615h830q11 0 18.5 -7t7.5 -17t-7.5 -17.5t-18.5 -7.5h-854q-9 0 -17 7.5t-8 17.5v426q-83 -206 -268 -334.5t-412 -128.5zM133 719q0 -111 34.5 -214.5t97.5 -187.5t146.5 -147.5t188 -98t215.5 -34.5q138 0 264 54t217 145.5t145 218
t54 264.5t-54 264.5t-145 218t-217 145.5t-264 54q-111 0 -215.5 -34.5t-188 -98t-146.5 -147.5t-97.5 -187.5t-34.5 -214.5z" />
    <glyph glyph-name="oe" unicode="&#x153;" horiz-adv-x="2004" 
d="M547 -6q-132 0 -244 65t-177 176.5t-65 243.5q0 131 65 242.5t177 176.5t244 65q158 0 284.5 -93t174.5 -239q48 147 173.5 239.5t284.5 92.5q130 0 240.5 -64.5t175 -175t64.5 -240.5q0 -9 -8 -16.5t-17 -7.5h-887q9 -163 121 -276t283 -130q243 -27 403 148
q6 6 16.5 6.5t18.5 -6.5q17 -14 2 -33q-81 -96 -196 -135.5t-248 -28.5q-152 13 -266.5 103t-157.5 225q-48 -149 -174.5 -243.5t-286.5 -94.5zM111 479q0 -181 127.5 -308.5t308.5 -127.5t308.5 127.5t127.5 308.5t-127.5 308.5t-308.5 127.5t-308.5 -127.5t-127.5 -308.5z
M1032 508h862q-11 170 -135 288.5t-295 118.5t-296 -119t-136 -288z" />
    <glyph glyph-name="Racute" unicode="&#x154;" horiz-adv-x="1304" 
d="M147 0q-10 0 -17 7t-7 18v1384q0 11 7 18t17 7h625q185 0 317 -132t132 -319q0 -182 -128 -312.5t-309 -135.5l430 -494q6 -7 5.5 -18t-7.5 -17q-6 -6 -16 -6q-13 0 -18 8l-459 527h-547v-510q0 -10 -8 -17.5t-17 -7.5zM172 584h600q165 0 282 117t117 282
q0 166 -117.5 283.5t-281.5 117.5h-600v-800zM582 1550l55 133q11 21 33 22t32 -15.5t0 -40.5l-75 -117q-7 -14 -21 -14.5t-22.5 9.5t-1.5 23z" />
    <glyph glyph-name="racute" unicode="&#x155;" horiz-adv-x="952" 
d="M127 0q-9 0 -17 7.5t-8 17.5v526q0 172 122 294t294 122q132 0 240 -78t151 -205q3 -9 -1 -18.5t-13 -12.5q-11 -3 -20.5 2t-12.5 15q-38 110 -132.5 177.5t-211.5 67.5q-152 0 -258 -106t-106 -258v-526q0 -10 -8 -17.5t-19 -7.5zM492 1079l55 133q11 21 33 22t32 -15.5
t0 -40.5l-75 -117q-7 -14 -21 -14.5t-22.5 9.5t-1.5 23z" />
    <glyph glyph-name="uni0156" unicode="&#x156;" horiz-adv-x="1304" 
d="M147 0q-10 0 -17 7t-7 18v1384q0 11 7 18t17 7h625q185 0 317 -132t132 -319q0 -182 -128 -312.5t-309 -135.5l430 -494q6 -7 5.5 -18t-7.5 -17q-6 -6 -16 -6q-13 0 -18 8l-459 527h-547v-510q0 -10 -8 -17.5t-17 -7.5zM172 584h600q165 0 282 117t117 282
q0 166 -117.5 283.5t-281.5 117.5h-600v-800zM502 -205l55 133q9 20 30.5 21t34.5 -16t1 -39l-76 -117q-7 -14 -20.5 -15t-22 9t-2.5 24z" />
    <glyph glyph-name="uni0157" unicode="&#x157;" horiz-adv-x="952" 
d="M127 0q-9 0 -17 7.5t-8 17.5v526q0 172 122 294t294 122q132 0 240 -78t151 -205q3 -9 -1 -18.5t-13 -12.5q-11 -3 -20.5 2t-12.5 15q-38 110 -132.5 177.5t-211.5 67.5q-152 0 -258 -106t-106 -258v-526q0 -10 -8 -17.5t-19 -7.5zM31 -205l55 133q9 20 30.5 21t34.5 -16
t1 -39l-76 -117q-7 -14 -20.5 -15t-22 9t-2.5 24z" />
    <glyph glyph-name="Rcaron" unicode="&#x158;" horiz-adv-x="1304" 
d="M147 0q-10 0 -17 7t-7 18v1384q0 11 7 18t17 7h625q185 0 317 -132t132 -319q0 -182 -128 -312.5t-309 -135.5l430 -494q6 -7 5.5 -18t-7.5 -17q-6 -6 -16 -6q-13 0 -18 8l-459 527h-547v-510q0 -10 -8 -17.5t-17 -7.5zM172 584h600q165 0 282 117t117 282
q0 166 -117.5 283.5t-281.5 117.5h-600v-800zM434 1686q-12 12 0 32q4 4 17 4q14 0 18 -6l139 -160l148 160q11 11 30 2q15 -15 2 -32l-161 -179q-3 -8 -19 -8q-11 0 -14 8z" />
    <glyph glyph-name="rcaron" unicode="&#x159;" horiz-adv-x="952" 
d="M127 0q-9 0 -17 7.5t-8 17.5v526q0 172 122 294t294 122q132 0 240 -78t151 -205q3 -9 -1 -18.5t-13 -12.5q-11 -3 -20.5 2t-12.5 15q-38 110 -132.5 177.5t-211.5 67.5q-152 0 -258 -106t-106 -258v-526q0 -10 -8 -17.5t-19 -7.5zM344 1214q-12 12 0 33q4 4 16 4
q15 0 19 -6l139 -160l148 160q11 11 30 2q16 -16 2 -33l-161 -178q-3 -8 -19 -8q-11 0 -14 8z" />
    <glyph glyph-name="Sacute" unicode="&#x15a;" horiz-adv-x="1177" 
d="M602 -10q-101 0 -192 27.5t-154 71t-105.5 88t-66.5 87.5q-5 7 -2 18t12 15q22 11 33 -10q22 -39 61 -78.5t97 -79.5t141 -65t176 -25q112 0 199.5 28.5t138.5 76.5t77.5 103t29.5 115q9 145 -102.5 234t-342.5 123q-318 49 -430 201q-68 95 -47 225q11 59 47 113
t94.5 98.5t147.5 68.5t194 19q251 -10 391 -227q14 -21 -6 -35q-7 -5 -17.5 -3t-14.5 11q-131 195 -357 205q-182 8 -296.5 -70.5t-133.5 -187.5q-14 -82 13.5 -146.5t90.5 -107.5t144.5 -71t187.5 -44q120 -18 210.5 -52t143.5 -74t84.5 -91t41 -97t6.5 -96
q-3 -53 -21.5 -103.5t-57.5 -99t-94 -85t-138 -58.5t-183 -22zM557 1550l55 133q11 21 33 22t34 -16t-1 -40l-76 -117q-7 -14 -21 -14.5t-22.5 9.5t-1.5 23z" />
    <glyph glyph-name="sacute" unicode="&#x15b;" horiz-adv-x="860" 
d="M444 -4q-68 0 -133.5 15t-113.5 38t-78 41.5t-49 34.5q-18 14 -4 35q7 8 16.5 10t17.5 -6q71 -59 160.5 -91t173.5 -32t156 21.5t115.5 70t44.5 113.5q1 78 -78.5 136t-229.5 89q-92 19 -159.5 50t-102 61.5t-54 66t-23 60t-1.5 47.5q8 99 105 157.5t242 49.5
q156 -6 286 -101q20 -17 6 -35q-6 -8 -16 -10t-18 4q-84 64 -184 85.5t-178.5 5t-133.5 -59.5t-59 -100q-3 -18 0.5 -38.5t20.5 -49t48 -53.5t91 -50t141 -41q86 -18 151 -46t101 -56t58.5 -61.5t29 -59t6.5 -51.5q0 -100 -92 -175t-263 -75zM414 1083l55 134q11 21 33 22
t34 -16.5t-1 -40.5l-76 -117q-7 -14 -21 -14.5t-22.5 9.5t-1.5 23z" />
    <glyph glyph-name="Scedilla" unicode="&#x15e;" horiz-adv-x="1177" 
d="M496 -395q-22 9 -19 28q5 20 33 17q116 -27 186 22q40 27 47 67t-18 62q-30 33 -84 33q-52 0 -100 -22q-13 -8 -25.5 1t-5.5 27l65 150q-95 4 -181 32.5t-146 71.5t-100.5 86t-63.5 84q-5 7 -2 18t12 15q22 11 33 -10q22 -39 61 -78.5t97 -79.5t141 -65t176 -25
q112 0 199.5 28.5t138.5 76.5t77.5 103t29.5 115q9 145 -102.5 234t-342.5 123q-318 49 -430 201q-68 95 -47 225q11 59 47 113t94.5 98.5t147.5 68.5t194 19q251 -10 391 -227q14 -21 -6 -35q-7 -5 -17.5 -3t-14.5 11q-131 195 -357 205q-182 8 -296.5 -70.5t-133.5 -187.5
q-14 -82 13.5 -146.5t90.5 -107.5t144.5 -71t187.5 -44q120 -18 210.5 -52t143.5 -74t84.5 -91t41 -97t6.5 -96q-4 -66 -32.5 -127t-82 -115.5t-146 -88.5t-210.5 -37v-2l-52 -115q43 16 100.5 5t84.5 -44q34 -43 28 -100q-7 -62 -61 -101q-97 -62 -229 -28z" />
    <glyph glyph-name="scedilla" unicode="&#x15f;" horiz-adv-x="860" 
d="M340 -381q-21 9 -18 29q5 19 32 16q115 -27 187 23q39 27 46 67t-18 62q-29 32 -84 32q-52 0 -100 -22q-13 -8 -25.5 1.5t-5.5 27.5l62 141q-82 4 -161.5 31.5t-118.5 51t-66 46.5q-18 14 -4 35q7 8 16.5 10t17.5 -6q71 -59 160.5 -91t173.5 -32t156 21.5t115.5 70
t44.5 113.5q1 78 -78.5 136t-229.5 89q-92 19 -159.5 50t-102 61.5t-54 66t-23 60t-1.5 47.5q8 99 105 157.5t242 49.5q156 -6 286 -101q20 -17 6 -35q-6 -8 -16 -10t-18 4q-84 64 -184 85.5t-178.5 5t-133.5 -59.5t-59 -100q-3 -18 0.5 -38.5t20.5 -49t48 -53.5t91 -50
t141 -41q86 -18 151 -46t101 -56t58.5 -61.5t29 -59t6.5 -51.5q0 -96 -86 -170t-246 -80l-49 -109q43 16 100 5t84 -44q35 -44 29 -100q-7 -60 -62 -100q-98 -63 -229 -29z" />
    <glyph glyph-name="Scaron" unicode="&#x160;" horiz-adv-x="1177" 
d="M602 -10q-101 0 -192 27.5t-154 71t-105.5 88t-66.5 87.5q-5 7 -2 18t12 15q22 11 33 -10q22 -39 61 -78.5t97 -79.5t141 -65t176 -25q112 0 199.5 28.5t138.5 76.5t77.5 103t29.5 115q9 145 -102.5 234t-342.5 123q-318 49 -430 201q-68 95 -47 225q11 59 47 113
t94.5 98.5t147.5 68.5t194 19q251 -10 391 -227q14 -21 -6 -35q-7 -5 -17.5 -3t-14.5 11q-131 195 -357 205q-182 8 -296.5 -70.5t-133.5 -187.5q-14 -82 13.5 -146.5t90.5 -107.5t144.5 -71t187.5 -44q120 -18 210.5 -52t143.5 -74t84.5 -91t41 -97t6.5 -96
q-3 -53 -21.5 -103.5t-57.5 -99t-94 -85t-138 -58.5t-183 -22zM410 1686q-12 12 0 32q4 4 16 4q14 0 18 -6l140 -160l147 160q12 12 31 2q15 -15 2 -32l-162 -179q-3 -8 -18 -8q-12 0 -15 8z" />
    <glyph glyph-name="scaron" unicode="&#x161;" horiz-adv-x="860" 
d="M444 -4q-68 0 -133.5 15t-113.5 38t-78 41.5t-49 34.5q-18 14 -4 35q7 8 16.5 10t17.5 -6q71 -59 160.5 -91t173.5 -32t156 21.5t115.5 70t44.5 113.5q1 78 -78.5 136t-229.5 89q-92 19 -159.5 50t-102 61.5t-54 66t-23 60t-1.5 47.5q8 99 105 157.5t242 49.5
q156 -6 286 -101q20 -17 6 -35q-6 -8 -16 -10t-18 4q-84 64 -184 85.5t-178.5 5t-133.5 -59.5t-59 -100q-3 -18 0.5 -38.5t20.5 -49t48 -53.5t91 -50t141 -41q86 -18 151 -46t101 -56t58.5 -61.5t29 -59t6.5 -51.5q0 -100 -92 -175t-263 -75zM266 1219q-12 12 0 32q4 4 17 4
q14 0 18 -6l139 -159l148 159q11 11 30 2q16 -16 3 -32l-162 -179q-3 -8 -19 -8q-11 0 -14 8z" />
    <glyph glyph-name="uni0162" unicode="&#x162;" horiz-adv-x="1206" 
d="M1100 1434q9 0 16.5 -7.5t7.5 -17.5t-7.5 -17.5t-16.5 -7.5h-473v-1359q0 -9 -2 -13q0 -8 -2 -14l-52 -115q43 16 100.5 5t84.5 -44q34 -43 28 -100q-7 -61 -61 -100q-98 -63 -229 -29q-22 9 -19 29q5 20 33 16q114 -26 186 23q40 27 47 67t-18 62q-29 32 -84 32
q-52 0 -100 -22q-13 -8 -25.5 1t-5.5 27l72 164q-2 4 -2 11v1359h-472q-10 0 -17 7t-7 18t7 18t17 7h994z" />
    <glyph glyph-name="uni0163" unicode="&#x163;" horiz-adv-x="679" 
d="M127 1434q11 0 18 -7t7 -18v-448h372q9 0 17 -7.5t8 -17.5t-8 -17.5t-17 -7.5h-372v-419q0 -95 23.5 -171t62.5 -125.5t92.5 -83t110.5 -47.5t118 -14l35 -2q10 0 16 -6q8 -8 8 -18q0 -11 -6 -17l-47 -106q43 16 100.5 5t84.5 -44q34 -43 28 -101q-7 -61 -61 -100
q-99 -63 -230 -29q-21 9 -18 29q5 20 33 16q114 -26 186 23q40 27 47 67t-18 62q-30 33 -84 33q-51 0 -101 -23q-13 -8 -25 1.5t-5 27.5l57 131q-66 0 -129 16t-123 53.5t-105 92.5t-72.5 140t-27.5 190v917q0 11 7 18t18 7z" />
    <glyph glyph-name="Tcaron" unicode="&#x164;" horiz-adv-x="1206" 
d="M1100 1434q9 0 16.5 -7.5t7.5 -17.5t-7.5 -17.5t-16.5 -7.5h-473v-1359q0 -11 -7.5 -18t-17.5 -7q-9 0 -16.5 7.5t-7.5 17.5v1359h-472q-10 0 -17 7t-7 18t7 18t17 7h994zM428 1686q-12 12 0 32q4 4 16 4q15 0 19 -6l139 -160l148 160q11 11 30 2q15 -15 2 -32l-161 -179
q-3 -8 -19 -8q-11 0 -14 8z" />
    <glyph glyph-name="tcaron" unicode="&#x165;" horiz-adv-x="679" 
d="M127 1434q11 0 18 -7t7 -18v-448h372q9 0 17 -7.5t8 -17.5t-8 -17.5t-17 -7.5h-372v-419q0 -95 23.5 -171t62.5 -125.5t92.5 -83t110.5 -47.5t118 -14l35 -2q10 0 17 -6.5t7 -17.5t-7 -18t-17 -7h-35q-66 0 -129 16t-123 53.5t-105 92.5t-72.5 140t-27.5 190v917
q0 11 7 18t18 7zM-47 1681q-12 12 0 33q4 4 16 4q15 0 19 -6l139 -160l147 160q12 12 31 2q16 -16 2 -33l-162 -178q-3 -8 -18 -8q-11 0 -14 8z" />
    <glyph glyph-name="Tbar" unicode="&#x166;" horiz-adv-x="1206" 
d="M1100 1434q9 0 16.5 -7.5t7.5 -17.5t-7.5 -17.5t-16.5 -7.5h-473v-561h278q10 0 17.5 -7.5t7.5 -16.5q0 -11 -7.5 -19t-17.5 -8h-278v-747q0 -11 -7.5 -18t-17.5 -7q-9 0 -16.5 7.5t-7.5 17.5v747h-265q-10 0 -17 8t-7 19q0 9 7 16.5t17 7.5h265v561h-472q-10 0 -17 7
t-7 18t7 18t17 7h994z" />
    <glyph glyph-name="tbar" unicode="&#x167;" horiz-adv-x="659" 
d="M106 1434q10 0 17.5 -7t7.5 -18v-448h373q9 0 16.5 -7.5t7.5 -17.5t-7.5 -17.5t-16.5 -7.5h-373v-264h373q9 0 16.5 -7t7.5 -17t-7.5 -17.5t-16.5 -7.5h-373v-106q0 -117 35.5 -205.5t95.5 -138t129.5 -73.5t147.5 -24l34 -2q11 0 18 -7t7 -17q0 -11 -7 -18t-18 -7h-34
q-66 0 -129 16t-123 53.5t-105 92.5t-72.5 140t-27.5 190v917q0 11 7 18t17 7z" />
    <glyph glyph-name="Utilde" unicode="&#x168;" horiz-adv-x="1380" 
d="M690 -6q-154 0 -284.5 76.5t-206.5 207t-76 283.5v850q0 11 7 18t17 7q11 0 18 -7t7 -18v-850q0 -140 69.5 -259.5t189 -189t259.5 -69.5q141 0 260 69.5t187.5 189t68.5 259.5v850q0 10 8 17.5t19 7.5q9 0 16.5 -7.5t7.5 -17.5v-850q0 -153 -76 -283.5t-206.5 -207
t-284.5 -76.5zM492 1614q-4 21 16 28q9 3 19.5 -2t13.5 -14q14 -47 61 -47q15 0 38 20.5t51.5 41t58.5 20.5q40 0 70.5 -23.5t39.5 -60.5q3 -14 -3 -22.5t-15 -10.5t-18.5 3.5t-12.5 17.5q-4 23 -21 37t-40 14q-20 0 -68 -41t-80 -41q-42 0 -71.5 21t-38.5 59z" />
    <glyph glyph-name="utilde" unicode="&#x169;" 
d="M117 967q10 0 17 -7t7 -18v-528q0 -151 107.5 -258t259.5 -107q151 0 257.5 107t106.5 258v528q0 10 7 17.5t18 7.5t18 -7.5t7 -17.5v-528q0 -171 -121.5 -292.5t-292.5 -121.5q-172 0 -294 121t-122 293v528q0 10 7 17.5t18 7.5zM309 1147q-4 22 17 29q9 3 19 -2.5
t13 -14.5q6 -21 22.5 -34t39.5 -13q15 0 37.5 20.5t51 41t58.5 20.5q40 0 71 -23.5t40 -60.5q3 -14 -3.5 -22.5t-15.5 -10.5t-18 3.5t-12 17.5q-4 23 -21.5 37t-40.5 14q-17 0 -42 -20.5t-52.5 -41t-52.5 -20.5q-42 0 -72 21t-39 59z" />
    <glyph glyph-name="Umacron" unicode="&#x16a;" horiz-adv-x="1380" 
d="M690 -6q-154 0 -284.5 76.5t-206.5 207t-76 283.5v850q0 11 7 18t17 7q11 0 18 -7t7 -18v-850q0 -140 69.5 -259.5t189 -189t259.5 -69.5q141 0 260 69.5t187.5 189t68.5 259.5v850q0 10 8 17.5t19 7.5q9 0 16.5 -7.5t7.5 -17.5v-850q0 -153 -76 -283.5t-206.5 -207
t-284.5 -76.5zM575 1559q-14 0 -19.5 11.5t0 23.5t19.5 12h232q22 0 23 -23.5t-23 -23.5h-232z" />
    <glyph glyph-name="umacron" unicode="&#x16b;" 
d="M117 967q10 0 17 -7t7 -18v-528q0 -151 107.5 -258t259.5 -107q151 0 257.5 107t106.5 258v528q0 10 7 17.5t18 7.5t18 -7.5t7 -17.5v-528q0 -171 -121.5 -292.5t-292.5 -121.5q-172 0 -294 121t-122 293v528q0 10 7 17.5t18 7.5zM393 1092q-14 0 -19.5 12t0 23.5
t19.5 11.5h232q22 0 23 -23.5t-23 -23.5h-232z" />
    <glyph glyph-name="Uring" unicode="&#x16e;" horiz-adv-x="1380" 
d="M690 -6q-154 0 -284.5 76.5t-206.5 207t-76 283.5v850q0 11 7 18t17 7q11 0 18 -7t7 -18v-850q0 -140 69.5 -259.5t189 -189t259.5 -69.5q141 0 260 69.5t187.5 189t68.5 259.5v850q0 10 8 17.5t19 7.5q9 0 16.5 -7.5t7.5 -17.5v-850q0 -153 -76 -283.5t-206.5 -207
t-284.5 -76.5zM561 1649q0 51 38 88t91 37q55 0 93 -37t38 -88t-38 -88t-93 -37q-53 0 -91 37t-38 88zM604 1649q0 -34 24.5 -56t61.5 -22q34 0 58 22.5t24 55.5t-24 55t-58 22q-37 0 -61.5 -21.5t-24.5 -55.5z" />
    <glyph glyph-name="uring" unicode="&#x16f;" 
d="M117 967q10 0 17 -7t7 -18v-528q0 -151 107.5 -258t259.5 -107q151 0 257.5 107t106.5 258v528q0 10 7 17.5t18 7.5t18 -7.5t7 -17.5v-528q0 -171 -121.5 -292.5t-292.5 -121.5q-172 0 -294 121t-122 293v528q0 10 7 17.5t18 7.5zM379 1182q0 51 38 88t91 37q55 0 93 -37
t38 -88t-38 -88t-93 -37q-53 0 -91 37t-38 88zM422 1182q0 -34 24.5 -56t61.5 -22q34 0 58 22.5t24 55.5t-24 55.5t-58 22.5q-37 0 -61.5 -22t-24.5 -56z" />
    <glyph glyph-name="Uhungarumlaut" unicode="&#x170;" horiz-adv-x="1380" 
d="M690 -6q-154 0 -284.5 76.5t-206.5 207t-76 283.5v850q0 11 7 18t17 7q11 0 18 -7t7 -18v-850q0 -140 69.5 -259.5t189 -189t259.5 -69.5q141 0 260 69.5t187.5 189t68.5 259.5v850q0 10 8 17.5t19 7.5q9 0 16.5 -7.5t7.5 -17.5v-850q0 -153 -76 -283.5t-206.5 -207
t-284.5 -76.5zM604 1569l53 129q11 21 34 21.5t33 -16t-1 -40.5l-74 -113q-10 -15 -22.5 -15.5t-20.5 11t-2 23.5zM731 1569l53 129q11 21 33 22t34 -16.5t-1 -40.5l-74 -113q-10 -15 -22.5 -15.5t-20.5 11t-2 23.5z" />
    <glyph glyph-name="uhungarumlaut" unicode="&#x171;" 
d="M117 967q10 0 17 -7t7 -18v-528q0 -151 107.5 -258t259.5 -107q151 0 257.5 107t106.5 258v528q0 10 7 17.5t18 7.5t18 -7.5t7 -17.5v-528q0 -171 -121.5 -292.5t-292.5 -121.5q-172 0 -294 121t-122 293v528q0 10 7 17.5t18 7.5zM422 1102l53 129q11 21 34 21.5t33 -16
t-1 -40.5l-74 -113q-10 -15 -22.5 -15.5t-20.5 11t-2 23.5zM549 1102l53 129q11 21 33 22t34 -16.5t-1 -40.5l-74 -113q-10 -15 -22.5 -15.5t-20.5 11t-2 23.5z" />
    <glyph glyph-name="Uogonek" unicode="&#x172;" horiz-adv-x="1380" 
d="M690 -6q-154 0 -284.5 76.5t-206.5 207t-76 283.5v850q0 11 7 18t17 7q11 0 18 -7t7 -18v-850q0 -140 69.5 -259.5t189 -189t259.5 -69.5q141 0 260 69.5t187.5 189t68.5 259.5v850q0 10 8 17.5t19 7.5q9 0 16.5 -7.5t7.5 -17.5v-850q0 -205 -131 -362q-40 -65 -73 -109
q-54 -68 -74.5 -112.5t-3.5 -96.5q7 -27 33.5 -49t58.5 -31q87 -16 147 49q7 7 18 8t17 -5q16 -19 2 -37q-68 -68 -149 -68q-25 0 -45 4q-47 12 -82 43.5t-47 71.5q-14 37 -8.5 75.5t19 67t38.5 62.5q-134 -78 -287 -78z" />
    <glyph glyph-name="uogonek" unicode="&#x173;" 
d="M117 967q10 0 17 -7t7 -18v-528q0 -151 107.5 -258t259.5 -107q146 0 254 103q2 4 6 8q104 104 104 254v528q0 10 7 17.5t18 7.5t18 -7.5t7 -17.5v-528q0 -175 -125 -297q-24 -44 -74 -109q-54 -68 -74.5 -112.5t-3.5 -96.5q7 -27 33.5 -49t58.5 -31q87 -16 148 50
q7 7 18 7.5t17 -5.5q16 -19 2 -37q-68 -68 -150 -68q-25 0 -45 4q-47 12 -82 43.5t-47 71.5q-21 67 3 123t83 129q0 1 1 2t1 2q-80 -41 -178 -41q-172 0 -294 121t-122 293v528q0 10 7 17.5t18 7.5z" />
    <glyph glyph-name="Wcircumflex" unicode="&#x174;" horiz-adv-x="1961" 
d="M1884 1438q9 -3 13.5 -12.5t0.5 -18.5l-507 -1391q-6 -16 -25 -16q-17 0 -23 16l-362 920l-363 -920q-6 -16 -22 -16q-19 0 -25 16l-508 1391q-4 9 1 18.5t14 12.5q24 7 31 -17l489 -1325l360 916q3 9 12.5 13t18.5 1q12 -6 15 -14l360 -916l489 1325q3 10 12.5 15
t18.5 2zM809 1546q-12 21 0 33l160 178q8 9 17 8.5t15 -8.5l162 -178q14 -17 -2 -33q-19 -10 -31 2l-147 160l-139 -160q-5 -7 -15.5 -8t-19.5 6z" />
    <glyph glyph-name="wcircumflex" unicode="&#x175;" horiz-adv-x="1708" 
d="M459 0q-16 0 -23 14l-383 916q-3 9 1.5 18.5t13.5 14.5q21 7 32 -15l359 -860l372 860q3 10 13 14t20 1q2 -1 8 -7t7 -8l358 -860l373 860q3 10 12.5 14t19.5 1q9 -5 13 -14.5t0 -18.5l-395 -916q-7 -14 -23 -14t-23 14l-360 863l-373 -863q-7 -14 -22 -14zM678 1079
q-12 21 0 33l160 178q8 9 17 8.5t15 -8.5l162 -178q14 -17 -2 -33q-19 -10 -31 2l-147 160l-139 -160q-5 -7 -15.5 -8t-19.5 6z" />
    <glyph glyph-name="Ycircumflex" unicode="&#x176;" horiz-adv-x="1236" 
d="M1163 1430q19 -13 8 -35l-526 -838l-2 -532q0 -10 -8 -17.5t-17 -7.5q-10 0 -17 7t-7 18l2 532l-530 838q-6 9 -3.5 19t11.5 16q7 5 17.5 2.5t14.5 -11.5l515 -811l507 811q15 19 35 9zM446 1546q-12 21 0 33l160 178q8 9 17.5 8.5t15.5 -8.5l162 -178q14 -17 -2 -33
q-19 -10 -31 2l-147 160l-140 -160q-5 -7 -15.5 -8t-19.5 6z" />
    <glyph glyph-name="ycircumflex" unicode="&#x177;" horiz-adv-x="942" 
d="M336 -336q-8 0 -12 2q-8 5 -12 15.5t-1 17.5l138 321l-396 904q-4 9 -1 19t11 13q22 10 33 -12l381 -860l369 860q11 22 33 12q8 -3 11 -12t-1 -20l-387 -906q0 -15 -8 -20l-138 -320q-7 -14 -20 -14zM299 1079q-12 21 0 33l160 178q8 9 17.5 8.5t15.5 -8.5l161 -178
q14 -17 -2 -33q-19 -9 -30 2l-148 160l-139 -160q-5 -7 -15.5 -8t-19.5 6z" />
    <glyph glyph-name="Ydieresis" unicode="&#x178;" horiz-adv-x="1236" 
d="M1163 1430q19 -13 8 -35l-526 -838l-2 -532q0 -10 -8 -17.5t-17 -7.5q-10 0 -17 7t-7 18l2 532l-530 838q-6 9 -3.5 19t11.5 16q7 5 17.5 2.5t14.5 -11.5l515 -811l507 811q15 19 35 9zM494 1556q0 17 12 29t29 12t28.5 -12t11.5 -29q0 -18 -11.5 -30.5t-28.5 -12.5
t-29 13t-12 30zM668 1556q0 17 12 29t29 12t29 -12t12 -29t-12 -30t-29 -13t-29 13t-12 30z" />
    <glyph glyph-name="Zacute" unicode="&#x179;" horiz-adv-x="1384" 
d="M1257 49q9 0 17 -7t8 -17t-8 -17.5t-17 -7.5h-1130q-16 0 -23 14q-7 15 2 27l1049 1343h-1001q-10 0 -17.5 7t-7.5 18t7.5 18t17.5 7h1052q14 0 21 -15q7 -14 -2 -26l-1049 -1344h1081zM666 1550l55 133q11 21 33 22t32 -15.5t0 -40.5l-75 -117q-7 -14 -21 -14.5
t-22.5 9.5t-1.5 23z" />
    <glyph glyph-name="zacute" unicode="&#x17a;" horiz-adv-x="958" 
d="M106 0q-15 0 -22 14q-7 15 2 27l682 870h-643q-11 0 -19 7.5t-8 17.5t8 17.5t19 7.5h694q15 0 23 -15q6 -12 -4 -26l-680 -871h694q11 0 18 -7t7 -17q0 -11 -7.5 -18t-17.5 -7h-746zM453 1083l55 134q11 21 33 21.5t32 -16t0 -40.5l-75 -117q-7 -14 -21 -14.5t-22.5 9.5
t-1.5 23z" />
    <glyph glyph-name="Zdotaccent" unicode="&#x17b;" horiz-adv-x="1384" 
d="M1257 49q9 0 17 -7t8 -17t-8 -17.5t-17 -7.5h-1130q-16 0 -23 14q-7 15 2 27l1049 1343h-1001q-10 0 -17.5 7t-7.5 18t7.5 18t17.5 7h1052q14 0 21 -15q7 -14 -2 -26l-1049 -1344h1081zM651 1565q0 17 12 29t29 12t29 -12t12 -29t-12 -30t-29 -13t-29 13t-12 30z" />
    <glyph glyph-name="zdotaccent" unicode="&#x17c;" horiz-adv-x="958" 
d="M106 0q-15 0 -22 14q-7 15 2 27l682 870h-643q-11 0 -19 7.5t-8 17.5t8 17.5t19 7.5h694q15 0 23 -15q6 -12 -4 -26l-680 -871h694q11 0 18 -7t7 -17q0 -11 -7.5 -18t-17.5 -7h-746zM438 1098q0 17 12 29t29 12t29 -12t12 -29t-12 -30t-29 -13t-29 13t-12 30z" />
    <glyph glyph-name="Zcaron" unicode="&#x17d;" horiz-adv-x="1384" 
d="M1257 49q9 0 17 -7t8 -17t-8 -17.5t-17 -7.5h-1130q-16 0 -23 14q-7 15 2 27l1049 1343h-1001q-10 0 -17.5 7t-7.5 18t7.5 18t17.5 7h1052q14 0 21 -15q7 -14 -2 -26l-1049 -1344h1081zM518 1686q-12 12 0 32q4 4 17 4q14 0 18 -6l139 -160l148 160q11 11 30 2
q15 -15 2 -32l-161 -179q-3 -8 -19 -8q-11 0 -14 8z" />
    <glyph glyph-name="zcaron" unicode="&#x17e;" horiz-adv-x="958" 
d="M106 0q-15 0 -22 14q-7 15 2 27l682 870h-643q-11 0 -19 7.5t-8 17.5t8 17.5t19 7.5h694q15 0 23 -15q6 -12 -4 -26l-680 -871h694q11 0 18 -7t7 -17q0 -11 -7.5 -18t-17.5 -7h-746zM305 1219q-12 12 0 32q4 4 17 4q14 0 18 -6l139 -159l148 159q11 11 30 2q15 -15 2 -32
l-161 -179q-3 -8 -19 -8q-11 0 -14 8z" />
    <glyph glyph-name="uni01CD" unicode="&#x1cd;" horiz-adv-x="1378" 
d="M88 14q-7 -14 -21 -14t-22.5 10.5t-1.5 24.5l623 1386q6 14 20.5 14.5t22.5 -14.5l626 -1386q7 -13 -2.5 -24.5t-22.5 -11t-20 14.5l-196 439h-813zM305 502h766l-385 848zM512 1720q-12 12 0 33q4 4 16 4q15 0 19 -6l139 -160l148 160q11 11 30 2q16 -16 2 -33
l-161 -178q-3 -8 -19 -8q-11 0 -14 8z" />
    <glyph glyph-name="uni01CE" unicode="&#x1ce;" horiz-adv-x="1132" 
d="M557 -6q-132 0 -243.5 65t-176.5 176.5t-65 243.5q0 131 65 242.5t176.5 176.5t243.5 65q131 0 242 -65t176 -176.5t65 -242.5v-8v-2v-446q0 -10 -6.5 -16.5t-15.5 -6.5q-10 0 -17.5 6.5t-7.5 16.5v247q-59 -125 -176 -200.5t-260 -75.5zM121 479q0 -181 127.5 -308.5
t308.5 -127.5t308.5 127.5t127.5 308.5t-127.5 308.5t-308.5 127.5t-308.5 -127.5t-127.5 -308.5zM383 1231q-12 12 0 33q4 4 16 4q15 0 19 -6l139 -160l148 160q11 11 30 2q16 -16 2 -33l-162 -178q-3 -9 -18 -9q-11 0 -14 9z" />
    <glyph glyph-name="uni01CF" unicode="&#x1cf;" horiz-adv-x="296" 
d="M147 -2q-9 0 -16.5 7.5t-7.5 17.5v1390q0 10 7.5 17.5t16.5 7.5q11 0 19 -7.5t8 -17.5v-1390q0 -10 -8 -17.5t-19 -7.5zM-27 1706q-12 12 0 33q4 4 17 4q14 0 18 -6l139 -160l148 160q12 12 31 2q16 -16 2 -33l-162 -178q-3 -8 -19 -8q-11 0 -14 8z" />
    <glyph glyph-name="uni01D0" unicode="&#x1d0;" horiz-adv-x="253" 
d="M127 0q-11 0 -18 7t-7 18v915q0 10 7 17.5t18 7.5q9 0 17 -7.5t8 -17.5v-915q0 -10 -8 -17.5t-17 -7.5zM-47 1235q-12 12 0 33q4 4 16 4q15 0 19 -6l139 -160l147 160q12 12 31 2q16 -16 2 -33l-162 -178q-3 -8 -18 -8q-11 0 -14 8z" />
    <glyph glyph-name="uni01D1" unicode="&#x1d1;" horiz-adv-x="1628" 
d="M815 -12q-148 0 -284 58t-234 156t-156.5 233.5t-58.5 283.5t58.5 283.5t156.5 233.5t234 156t284 58q197 0 365.5 -98t267 -266.5t98.5 -366.5t-98.5 -366.5t-267 -266.5t-365.5 -98zM133 719q0 -111 34.5 -214.5t97.5 -187.5t146.5 -147.5t188 -98t215.5 -34.5
q138 0 264 54t217 145.5t145 218t54 264.5t-54 264.5t-145 218t-217 145.5t-264 54q-111 0 -215.5 -34.5t-188 -98t-146.5 -147.5t-97.5 -187.5t-34.5 -214.5zM641 1706q-12 12 0 33q4 4 16 4q15 0 19 -6l139 -160l148 160q11 11 30 2q16 -16 2 -33l-161 -178q-3 -8 -19 -8
q-11 0 -14 8z" />
    <glyph glyph-name="uni01D2" unicode="&#x1d2;" horiz-adv-x="1091" 
d="M547 -6q-132 0 -244 65t-177 176.5t-65 243.5q0 131 65 242.5t177 176.5t244 65q131 0 242 -65t176 -176.5t65 -242.5q0 -132 -65 -243.5t-176 -176.5t-242 -65zM111 479q0 -181 127.5 -308.5t308.5 -127.5t308.5 127.5t127.5 308.5t-127.5 308.5t-308.5 127.5
t-308.5 -127.5t-127.5 -308.5zM369 1239q-12 12 0 33q4 4 16 4q14 0 18 -6l140 -160l147 160q12 12 31 2q16 -16 2 -33l-162 -178q-3 -8 -18 -8q-12 0 -15 8z" />
    <glyph glyph-name="uni01D3" unicode="&#x1d3;" horiz-adv-x="1380" 
d="M690 -6q-154 0 -284.5 76.5t-206.5 207t-76 283.5v850q0 11 7 18t17 7q11 0 18 -7t7 -18v-850q0 -140 69.5 -259.5t189 -189t259.5 -69.5q141 0 260 69.5t187.5 189t68.5 259.5v850q0 10 8 17.5t19 7.5q9 0 16.5 -7.5t7.5 -17.5v-850q0 -153 -76 -283.5t-206.5 -207
t-284.5 -76.5zM516 1706q-12 12 0 33q4 4 16 4q15 0 19 -6l139 -160l148 160q11 11 30 2q16 -16 2 -33l-161 -178q-3 -8 -19 -8q-11 0 -14 8z" />
    <glyph glyph-name="uni01D4" unicode="&#x1d4;" 
d="M117 967q10 0 17 -7t7 -18v-528q0 -151 107.5 -258t259.5 -107q151 0 257.5 107t106.5 258v528q0 10 7 17.5t18 7.5t18 -7.5t7 -17.5v-528q0 -171 -121.5 -292.5t-292.5 -121.5q-172 0 -294 121t-122 293v528q0 10 7 17.5t18 7.5zM334 1239q-12 12 0 33q4 4 16 4
q15 0 19 -6l139 -160l147 160q12 12 31 2q16 -16 2 -33l-162 -178q-3 -8 -18 -8q-11 0 -14 8z" />
    <glyph glyph-name="Gcaron" unicode="&#x1e6;" horiz-adv-x="1349" 
d="M811 -12q-198 0 -366 97.5t-265.5 264.5t-97.5 363q0 148 57.5 283t155.5 233t233 155.5t283 57.5q215 0 406 -123q7 -4 10 -17t-2 -20q-19 -19 -35 -6q-170 115 -379 115q-138 0 -263.5 -53.5t-216.5 -144t-144.5 -216t-53.5 -264.5q0 -137 53.5 -262t144.5 -216.5
t216.5 -145.5t263.5 -54q206 0 389 127v526h-448q-9 0 -16 7.5t-7 17.5q0 11 7 19.5t16 8.5h473q9 0 15.5 -8.5t6.5 -19.5v-566q0 -13 -10 -18q-187 -141 -426 -141zM637 1720q-12 12 0 33q4 4 16 4q15 0 19 -6l139 -160l147 160q12 12 31 2q16 -16 2 -33l-162 -178
q-3 -8 -18 -8q-11 0 -14 8z" />
    <glyph glyph-name="gcaron" unicode="&#x1e7;" horiz-adv-x="1138" 
d="M555 -4q-199 0 -341 142t-142 341q0 198 142 340t341 142q130 0 241 -65t175.5 -176t64.5 -241v-407q0 -190 -127.5 -327t-324.5 -157q-9 0 -33.5 -1t-38.5 -1q-167 0 -291 95q-19 13 -6 30q6 9 16.5 11t18.5 -5q137 -100 332 -77q178 17 290.5 138t112.5 294v190
q-61 -120 -176.5 -193t-253.5 -73zM121 479q0 -180 127 -306t307 -126q179 0 304.5 126t125.5 306q0 179 -126 305.5t-304 126.5q-180 0 -307 -126.5t-127 -305.5zM381 1229q-12 12 0 33q4 4 16 4q15 0 19 -6l139 -160l147 160q12 12 31 2q16 -16 2 -33l-162 -178
q-3 -9 -18 -9q-11 0 -14 9z" />
    <glyph glyph-name="uni0218" unicode="&#x218;" horiz-adv-x="1177" 
d="M602 -10q-101 0 -192 27.5t-154 71t-105.5 88t-66.5 87.5q-5 7 -2 18t12 15q22 11 33 -10q22 -39 61 -78.5t97 -79.5t141 -65t176 -25q112 0 199.5 28.5t138.5 76.5t77.5 103t29.5 115q9 145 -102.5 234t-342.5 123q-318 49 -430 201q-68 95 -47 225q11 59 47 113
t94.5 98.5t147.5 68.5t194 19q251 -10 391 -227q14 -21 -6 -35q-7 -5 -17.5 -3t-14.5 11q-131 195 -357 205q-182 8 -296.5 -70.5t-133.5 -187.5q-14 -82 13.5 -146.5t90.5 -107.5t144.5 -71t187.5 -44q120 -18 210.5 -52t143.5 -74t84.5 -91t41 -97t6.5 -96
q-3 -53 -21.5 -103.5t-57.5 -99t-94 -85t-138 -58.5t-183 -22zM498 -215l55 133q9 20 30 20.5t34 -16.5t1 -39l-75 -116q-7 -14 -20.5 -15t-22 9t-2.5 24z" />
    <glyph glyph-name="uni0219" unicode="&#x219;" horiz-adv-x="860" 
d="M444 -4q-68 0 -133.5 15t-113.5 38t-78 41.5t-49 34.5q-18 14 -4 35q7 8 16.5 10t17.5 -6q71 -59 160.5 -91t173.5 -32t156 21.5t115.5 70t44.5 113.5q1 78 -78.5 136t-229.5 89q-92 19 -159.5 50t-102 61.5t-54 66t-23 60t-1.5 47.5q8 99 105 157.5t242 49.5
q156 -6 286 -101q20 -17 6 -35q-6 -8 -16 -10t-18 4q-84 64 -184 85.5t-178.5 5t-133.5 -59.5t-59 -100q-3 -18 0.5 -38.5t20.5 -49t48 -53.5t91 -50t141 -41q86 -18 151 -46t101 -56t58.5 -61.5t29 -59t6.5 -51.5q0 -100 -92 -175t-263 -75zM342 -201l55 133q9 20 30.5 21
t34.5 -16t1 -39l-76 -117q-7 -14 -20.5 -15t-22 9t-2.5 24z" />
    <glyph glyph-name="uni021A" unicode="&#x21a;" horiz-adv-x="1206" 
d="M1100 1434q9 0 16.5 -7.5t7.5 -17.5t-7.5 -17.5t-16.5 -7.5h-473v-1359q0 -11 -7.5 -18t-17.5 -7q-9 0 -16.5 7.5t-7.5 17.5v1359h-472q-10 0 -17 7t-7 18t7 18t17 7h994zM496 -205l55 133q9 20 30 21t34 -16t1 -39l-75 -117q-7 -14 -20.5 -15t-22 9t-2.5 24z" />
    <glyph glyph-name="uni021B" unicode="&#x21b;" horiz-adv-x="679" 
d="M127 1434q11 0 18 -7t7 -18v-448h372q9 0 17 -7.5t8 -17.5t-8 -17.5t-17 -7.5h-372v-419q0 -95 23.5 -171t62.5 -125.5t92.5 -83t110.5 -47.5t118 -14l35 -2q10 0 17 -6.5t7 -17.5t-7 -18t-17 -7h-35q-66 0 -129 16t-123 53.5t-105 92.5t-72.5 140t-27.5 190v917
q0 11 7 18t18 7zM489 -186l56 133q9 20 30 20.5t34 -16.5t1 -39l-75 -117q-7 -14 -20.5 -14.5t-22.5 9.5t-3 24z" />
    <glyph glyph-name="uni0228" unicode="&#x228;" horiz-adv-x="1130" 
d="M1022 49q11 0 19 -7t8 -17t-8 -17.5t-19 -7.5h-115l-47 -104q43 16 100 5t84 -44q35 -44 29 -101q-7 -61 -61 -100q-99 -63 -230 -29q-21 9 -18 29q5 20 33 16q114 -26 186 23q40 27 47 67t-18 62q-30 33 -84 33q-51 0 -101 -23q-13 -8 -25 1.5t-5 27.5l59 137h-688
q-9 0 -17 7.5t-8 17.5v1384q0 9 8 17t17 8h854q10 0 18.5 -8t8.5 -17q0 -10 -8 -17.5t-19 -7.5h-829v-643h729q9 0 16.5 -7t7.5 -17t-7.5 -17.5t-16.5 -7.5h-729v-643h829z" />
    <glyph glyph-name="uni0229" unicode="&#x229;" horiz-adv-x="1103" 
d="M520 4q-194 17 -321 153t-127 326q0 198 141 339t340 141q130 0 240.5 -64.5t174.5 -175t64 -240.5q0 -9 -7.5 -16.5t-16.5 -7.5h-887q9 -163 120.5 -276t282.5 -130q243 -28 404 148q6 6 16.5 6.5t18.5 -6.5q17 -14 2 -33q-128 -151 -336 -164l-49 -108q43 16 100 5
t84 -44q35 -44 29 -101q-7 -60 -62 -100q-98 -63 -229 -29q-22 9 -19 29q5 20 33 16q114 -26 186 23q40 27 47 67t-18 62q-30 33 -84 33q-50 0 -100 -23q-13 -8 -25.5 1.5t-5.5 27.5l62 139q-40 0 -58 2zM121 508h862q-11 170 -135 288.5t-295 118.5t-296 -119t-136 -288z
" />
    <glyph glyph-name="circumflex" unicode="&#x2c6;" horiz-adv-x="489" 
d="M422 1442q14 -17 -2 -33q-19 -10 -31 2l-147 160l-140 -160q-5 -7 -15 -8t-19 6q-12 21 0 33l159 178q8 9 17.5 8.5t15.5 -8.5z" />
    <glyph glyph-name="caron" unicode="&#x2c7;" horiz-adv-x="489" 
d="M260 1370q-3 -8 -18 -8q-12 0 -15 8l-159 178q-12 12 0 33q4 4 16 4q14 0 18 -6l140 -160l147 160q12 12 31 2q16 -16 2 -33z" />
    <glyph glyph-name="breve" unicode="&#x2d8;" horiz-adv-x="491" 
d="M248 1415q-77 0 -132 51.5t-55 124.5q0 11 7.5 18t17.5 7q9 0 17 -7.5t8 -17.5q0 -53 39 -90t98 -37q56 0 95.5 37.5t39.5 89.5q0 25 25 25q9 0 15.5 -7.5t6.5 -17.5q0 -74 -53 -125t-129 -51z" />
    <glyph glyph-name="dotaccent" unicode="&#x2d9;" horiz-adv-x="204" 
d="M102 1489q-17 0 -29 13t-12 30t12 29t29 12t29 -12t12 -29t-12 -30t-29 -13z" />
    <glyph glyph-name="ring" unicode="&#x2da;" horiz-adv-x="382" 
d="M190 1581q55 0 93.5 -37t38.5 -88t-38.5 -88t-93.5 -37q-53 0 -91 37t-38 88t38 88t91 37zM104 1456q0 -34 24.5 -56t61.5 -22q34 0 58 22.5t24 55.5t-24 55.5t-58 22.5q-37 0 -61.5 -22t-24.5 -56z" />
    <glyph glyph-name="ogonek" unicode="&#x2db;" horiz-adv-x="501" 
d="M264 -438q-25 0 -45 4q-47 12 -82 43.5t-47 71.5q-21 67 3 122.5t83 128.5q48 68 76 113q11 22 33 6q8 -3 10 -12.5t-2 -18.5q-30 -53 -78 -116q-54 -68 -74.5 -112.5t-3.5 -96.5q7 -27 33.5 -49t58.5 -31q88 -16 148 49q7 7 18 7.5t17 -5.5q16 -19 2 -37
q-67 -67 -150 -67z" />
    <glyph glyph-name="tilde" unicode="&#x2dc;" horiz-adv-x="491" 
d="M319 1589q40 0 71 -23.5t40 -60.5q5 -27 -18 -32q-25 -5 -31 20q-4 23 -21.5 37t-40.5 14q-17 0 -42 -20.5t-52.5 -41t-52.5 -20.5q-42 0 -72 21t-39 59q-4 22 17 29q9 3 19.5 -2.5t13.5 -14.5q14 -47 61 -47q15 0 37.5 20.5t51 41t58.5 20.5z" />
    <glyph glyph-name="hungarumlaut" unicode="&#x2dd;" horiz-adv-x="370" 
d="M111 1630q11 21 33.5 21.5t32.5 -16t-1 -40.5l-74 -112q-8 -15 -21.5 -15.5t-21.5 10.5t-2 23zM184 1501l54 129q11 21 33 21.5t32 -16t0 -40.5l-74 -112q-8 -15 -21.5 -15.5t-21.5 10.5t-2 23z" />
    <glyph glyph-name="gravecomb" unicode="&#x300;" horiz-adv-x="0" 
d="M68 1587q-10 24 0 40.5t32 16t33 -21.5l55 -133q7 -13 -1.5 -23.5t-22.5 -10t-21 14.5z" />
    <glyph glyph-name="acutecomb" unicode="&#x301;" horiz-adv-x="0" 
d="M119 1602q11 21 33 21.5t32 -16t0 -40.5l-75 -117q-7 -14 -21 -14.5t-23 9.5t-2 23z" />
    <glyph glyph-name="uni0302" unicode="&#x302;" horiz-adv-x="0" 
d="M422 1444q13 -17 -2.5 -31.5t-30.5 0.5l-147 160l-140 -160q-8 -11 -21 -7.5t-17.5 15t4.5 23.5l159 178q6 8 17.5 8t15.5 -8z" />
    <glyph glyph-name="tildecomb" unicode="&#x303;" horiz-adv-x="0" 
d="M319 1589q40 0 71 -23.5t40 -60.5q5 -27 -18 -32q-25 -5 -31 20q-4 23 -21.5 37t-40.5 14q-17 0 -42 -20.5t-52.5 -41t-52.5 -20.5q-42 0 -72 21t-39 59q-4 22 17 29q9 3 19.5 -2.5t13.5 -14.5q14 -47 61 -47q15 0 37.5 20.5t51 41t58.5 20.5z" />
    <glyph glyph-name="uni0304" unicode="&#x304;" horiz-adv-x="0" 
d="M63 1522q-14 0 -19.5 12t0 23.5t19.5 11.5h273q22 0 23 -23.5t-23 -23.5h-273z" />
    <glyph glyph-name="uni0306" unicode="&#x306;" horiz-adv-x="0" 
d="M248 1415q-77 0 -132 51.5t-55 124.5q0 11 7.5 18t17.5 7q9 0 17 -7.5t8 -17.5q0 -53 39 -90t98 -37q56 0 95.5 37.5t39.5 89.5q0 25 25 25q9 0 15.5 -7.5t6.5 -17.5q0 -74 -53 -125t-129 -51z" />
    <glyph glyph-name="uni0307" unicode="&#x307;" horiz-adv-x="0" 
d="M102 1489q-17 0 -29 13t-12 30t12 29t29 12t29 -12t12 -29t-12 -30t-29 -13z" />
    <glyph glyph-name="uni0308" unicode="&#x308;" horiz-adv-x="0" 
d="M102 1448q-17 0 -29 13t-12 30t12 29t29 12t29 -12t12 -29t-12 -30t-29 -13zM236 1491q0 17 11.5 29t28.5 12t29 -12t12 -29t-12 -30t-29 -13t-28.5 12.5t-11.5 30.5z" />
    <glyph glyph-name="uni030A" unicode="&#x30a;" horiz-adv-x="0" 
d="M190 1571q55 0 93.5 -37t38.5 -88t-38.5 -88t-93.5 -37q-53 0 -91 37t-38 88t38 88t91 37zM104 1446q0 -34 24.5 -56t61.5 -22q34 0 58 22.5t24 55.5t-24 55.5t-58 22.5q-37 0 -61.5 -22t-24.5 -56z" />
    <glyph glyph-name="uni030B" unicode="&#x30b;" horiz-adv-x="0" 
d="M117 1630q11 21 33.5 21.5t32.5 -16t-1 -40.5l-73 -112q-8 -15 -22 -15.5t-22 10.5t-2 23zM190 1501l54 129q11 21 33 21.5t32 -16t0 -40.5l-73 -112q-8 -15 -22 -15.5t-22 10.5t-2 23z" />
    <glyph glyph-name="uni030C" unicode="&#x30c;" horiz-adv-x="0" 
d="M260 1352q-3 -9 -18 -9q-12 0 -15 9l-159 178q-12 12 0 33q4 4 16 4q14 0 18 -6l140 -160l147 160q12 12 31 2q16 -16 2 -33z" />
    <glyph glyph-name="uni0312" unicode="&#x312;" horiz-adv-x="0" 
d="M133 1458q-11 -21 -33 -21.5t-32 16t0 40.5l75 117q7 14 21 14.5t22.5 -10t1.5 -23.5z" />
    <glyph glyph-name="uni0326" unicode="&#x326;" horiz-adv-x="0" 
d="M109 -223q-7 -14 -20.5 -15t-22.5 9t-3 24l56 133q9 20 30 21t34 -16t1 -39z" />
    <glyph glyph-name="uni0327" unicode="&#x327;" horiz-adv-x="0" 
d="M80 -381q-22 9 -19 29q5 20 33 16q115 -27 187 23q39 27 46 67t-18 62q-29 32 -84 32q-52 0 -100 -22q-13 -8 -25.5 1.5t-5.5 27.5l72 163q3 10 12.5 14t18.5 1q8 -3 12 -12t0 -19l-51 -115q43 16 100 5t84 -44q35 -44 29 -100q-7 -60 -62 -100q-98 -63 -229 -29z" />
    <glyph glyph-name="uni0328" unicode="&#x328;" horiz-adv-x="0" 
d="M264 -438q-25 0 -45 4q-47 12 -82 43.5t-47 71.5q-21 67 3 122.5t83 128.5q48 68 76 113q11 22 33 6q8 -3 10 -12.5t-2 -18.5q-30 -53 -78 -116q-54 -68 -74.5 -112.5t-3.5 -96.5q7 -27 33.5 -49t58.5 -31q88 -16 148 49q7 7 18 7.5t17 -5.5q16 -19 2 -37
q-67 -67 -150 -67z" />
    <glyph glyph-name="uni1E3E" unicode="&#x1e3e;" horiz-adv-x="1726" 
d="M168 0q-9 0 -17 7.5t-8 17.5v1386q0 17 19 25q15 6 26 -9l676 -921l674 921q15 15 29 9q16 -6 16 -25v-1386q0 -11 -7 -18t-17 -7q-9 0 -17 7.5t-8 17.5v1310l-649 -884q-7 -11 -20 -11t-21 11l-649 884v-1310q0 -10 -8 -17.5t-19 -7.5zM838 1440l55 133q11 21 33 21.5
t32 -16t0 -40.5l-75 -117q-7 -14 -21 -14.5t-22.5 10t-1.5 23.5z" />
    <glyph glyph-name="uni1E3F" unicode="&#x1e3f;" horiz-adv-x="1662" 
d="M831 0q-10 0 -17 7t-7 18v563q0 136 -96.5 231.5t-231.5 95.5t-231 -95.5t-96 -231.5v-563q0 -11 -7 -18t-18 -7t-18 7t-7 18v563q0 157 110 267t267 110q118 0 214 -67.5t138 -174.5q40 107 136.5 174.5t216.5 67.5q156 0 266.5 -110.5t110.5 -266.5v-563
q0 -11 -7.5 -18t-17.5 -7q-12 0 -19.5 7t-7.5 18v563q0 136 -95 231.5t-230 95.5q-137 0 -232.5 -95.5t-95.5 -231.5v-563q0 -11 -7 -18t-18 -7zM805 1055l55 133q11 21 33 22t34 -16.5t-1 -40.5l-76 -117q-7 -14 -21 -14.5t-22.5 10t-1.5 23.5z" />
    <glyph glyph-name="Wgrave" unicode="&#x1e80;" horiz-adv-x="1961" 
d="M1884 1438q9 -3 13.5 -12.5t0.5 -18.5l-507 -1391q-6 -16 -25 -16q-17 0 -23 16l-362 920l-363 -920q-6 -16 -22 -16q-19 0 -25 16l-508 1391q-4 9 1 18.5t14 12.5q24 7 31 -17l489 -1325l360 916q3 9 12.5 13t18.5 1q12 -6 15 -14l360 -916l489 1325q3 10 12.5 15
t18.5 2zM883 1642q-10 24 0 40.5t32 16t33 -21.5l56 -133q7 -13 -2 -23t-23 -9.5t-21 14.5z" />
    <glyph glyph-name="wgrave" unicode="&#x1e81;" horiz-adv-x="1708" 
d="M459 0q-16 0 -23 14l-383 916q-3 9 1.5 18.5t13.5 14.5q21 7 32 -15l359 -860l372 860q3 10 13 14t20 1q2 -1 8 -7t7 -8l358 -860l373 860q3 10 12.5 14t19.5 1q9 -5 13 -14.5t0 -18.5l-395 -916q-7 -14 -23 -14t-23 14l-360 863l-373 -863q-7 -14 -22 -14zM752 1176
q-10 24 0 40.5t32 15.5t33 -22l55 -133q7 -13 -1.5 -23t-22.5 -9.5t-21 14.5z" />
    <glyph glyph-name="Wacute" unicode="&#x1e82;" horiz-adv-x="1961" 
d="M1884 1438q9 -3 13.5 -12.5t0.5 -18.5l-507 -1391q-6 -16 -25 -16q-17 0 -23 16l-362 920l-363 -920q-6 -16 -22 -16q-19 0 -25 16l-508 1391q-4 9 1 18.5t14 12.5q24 7 31 -17l489 -1325l360 916q3 9 12.5 13t18.5 1q12 -6 15 -14l360 -916l489 1325q3 10 12.5 15
t18.5 2zM961 1536l55 133q9 20 30 20.5t34 -16.5t1 -39l-75 -116q-7 -14 -20.5 -15t-22 9t-2.5 24z" />
    <glyph glyph-name="wacute" unicode="&#x1e83;" horiz-adv-x="1708" 
d="M459 0q-16 0 -23 14l-383 916q-3 9 1.5 18.5t13.5 14.5q21 7 32 -15l359 -860l372 860q3 10 13 14t20 1q2 -1 8 -7t7 -8l358 -860l373 860q3 10 12.5 14t19.5 1q9 -5 13 -14.5t0 -18.5l-395 -916q-7 -14 -23 -14t-23 14l-360 863l-373 -863q-7 -14 -22 -14zM829 1069
l56 133q9 20 30 20.5t34 -16.5t1 -39l-76 -116q-7 -14 -20.5 -15t-22 9t-2.5 24z" />
    <glyph glyph-name="Wdieresis" unicode="&#x1e84;" horiz-adv-x="1961" 
d="M1884 1438q9 -3 13.5 -12.5t0.5 -18.5l-507 -1391q-6 -16 -25 -16q-17 0 -23 16l-362 920l-363 -920q-6 -16 -22 -16q-19 0 -25 16l-508 1391q-4 9 1 18.5t14 12.5q24 7 31 -17l489 -1325l360 916q3 9 12.5 13t18.5 1q12 -6 15 -14l360 -916l489 1325q3 10 12.5 15
t18.5 2zM856 1556q0 17 12 29t29 12t29 -12t12 -29t-12 -30t-29 -13t-29 13t-12 30zM1030 1556q0 17 12 29t29 12t29 -12t12 -29t-12 -30t-29 -13t-29 13t-12 30z" />
    <glyph glyph-name="wdieresis" unicode="&#x1e85;" horiz-adv-x="1708" 
d="M459 0q-16 0 -23 14l-383 916q-3 9 1.5 18.5t13.5 14.5q21 7 32 -15l359 -860l372 860q3 10 13 14t20 1q2 -1 8 -7t7 -8l358 -860l373 860q3 10 12.5 14t19.5 1q9 -5 13 -14.5t0 -18.5l-395 -916q-7 -14 -23 -14t-23 14l-360 863l-373 -863q-7 -14 -22 -14zM725 1090
q0 17 12 28.5t29 11.5t29 -11.5t12 -28.5t-12 -30t-29 -13t-29 13t-12 30zM899 1090q0 17 12 28.5t29 11.5t29 -11.5t12 -28.5t-12 -30t-29 -13t-29 13t-12 30z" />
    <glyph glyph-name="uni1EBC" unicode="&#x1ebc;" horiz-adv-x="1130" 
d="M1022 49q11 0 19 -7t8 -17t-8 -17.5t-19 -7.5h-854q-9 0 -17 7.5t-8 17.5v1384q0 9 8 17t17 8h854q10 0 18.5 -8t8.5 -17q0 -10 -8 -17.5t-19 -7.5h-829v-643h729q9 0 16.5 -7t7.5 -17t-7.5 -17.5t-16.5 -7.5h-729v-643h829zM403 1630q-4 22 17 29q9 3 19.5 -2.5
t13.5 -14.5q14 -47 61 -47q15 0 38 20.5t51.5 41t58.5 20.5q40 0 70.5 -23.5t39.5 -60.5q5 -27 -18 -32q-25 -5 -31 20q-4 23 -21 37t-40 14q-17 0 -42 -20.5t-53 -41t-53 -20.5q-42 0 -72 21t-39 59z" />
    <glyph glyph-name="uni1EBD" unicode="&#x1ebd;" horiz-adv-x="1103" 
d="M520 4q-194 17 -321 153t-127 326q0 198 141 339t340 141q130 0 240.5 -64.5t174.5 -175t64 -240.5q0 -9 -7.5 -16.5t-16.5 -7.5h-887q9 -163 120.5 -276t282.5 -130q243 -28 404 148q6 6 16.5 6.5t18.5 -6.5q17 -14 2 -33q-81 -96 -196.5 -135.5t-248.5 -28.5zM121 508
h862q-11 170 -135 288.5t-295 118.5t-296 -119t-136 -288zM354 1139q-4 21 17 28q9 3 19 -2t13 -14q6 -21 22.5 -34t39.5 -13q15 0 37.5 20.5t51 41t58.5 20.5q40 0 71 -23.5t40 -60.5q3 -14 -3 -22.5t-15 -10.5t-18.5 3.5t-12.5 17.5q-4 23 -21.5 37t-40.5 14
q-20 0 -68 -41t-79 -41q-42 0 -72 21t-39 59z" />
    <glyph glyph-name="Ygrave" unicode="&#x1ef2;" horiz-adv-x="1236" 
d="M1163 1430q19 -13 8 -35l-526 -838l-2 -532q0 -10 -8 -17.5t-17 -7.5q-10 0 -17 7t-7 18l2 532l-530 838q-6 9 -3.5 19t11.5 16q7 5 17.5 2.5t14.5 -11.5l515 -811l507 811q15 19 35 9zM520 1642q-13 23 -1 40.5t34 16.5t33 -22l55 -133q7 -13 -1.5 -23t-22.5 -9.5
t-21 14.5z" />
    <glyph glyph-name="ygrave" unicode="&#x1ef3;" horiz-adv-x="942" 
d="M336 -336q-8 0 -12 2q-8 5 -12 15.5t-1 17.5l138 321l-396 904q-4 9 -1 19t11 13q22 10 33 -12l381 -860l369 860q11 22 33 12q8 -3 11 -12t-1 -20l-387 -906q0 -15 -8 -20l-138 -320q-7 -14 -20 -14zM373 1176q-10 24 0 40.5t32 15.5t33 -22l56 -133q7 -13 -1.5 -23
t-22.5 -9.5t-21 14.5z" />
    <glyph glyph-name="uni1EF8" unicode="&#x1ef8;" horiz-adv-x="1236" 
d="M1163 1430q19 -13 8 -35l-526 -838l-2 -532q0 -10 -8 -17.5t-17 -7.5q-10 0 -17 7t-7 18l2 532l-530 838q-6 9 -3.5 19t11.5 16q7 5 17.5 2.5t14.5 -11.5l515 -811l507 811q15 19 35 9zM422 1614q-4 21 16 28q9 3 19.5 -2t13.5 -14q14 -47 61 -47q15 0 38 20.5t51.5 41
t58.5 20.5q40 0 71 -23.5t40 -60.5q3 -14 -3.5 -22.5t-15.5 -10.5t-18.5 3.5t-12.5 17.5q-4 23 -21 37t-40 14q-20 0 -68 -41t-80 -41q-42 0 -71.5 21t-38.5 59z" />
    <glyph glyph-name="uni1EF9" unicode="&#x1ef9;" horiz-adv-x="942" 
d="M336 -336q-8 0 -12 2q-8 5 -12 15.5t-1 17.5l138 321l-396 904q-4 9 -1 19t11 13q22 10 33 -12l381 -860l369 860q11 22 33 12q8 -3 11 -12t-1 -20l-387 -906q0 -15 -8 -20l-138 -320q-7 -14 -20 -14zM274 1147q-4 22 17 29q9 3 19.5 -2.5t13.5 -14.5q14 -47 61 -47
q15 0 37.5 20.5t51 41t58.5 20.5q40 0 71 -23.5t40 -60.5q3 -14 -3 -22.5t-15 -10.5t-18.5 3.5t-12.5 17.5q-4 23 -21.5 37t-40.5 14q-20 0 -68 -41t-79 -41q-42 0 -72 21t-39 59z" />
    <glyph glyph-name="endash" unicode="&#x2013;" horiz-adv-x="1050" 
d="M82 604q0 9 7 17t17 8h838q10 0 17.5 -8t7.5 -17q0 -11 -7.5 -18.5t-17.5 -7.5h-838q-10 0 -17 7.5t-7 18.5z" />
    <glyph glyph-name="emdash" unicode="&#x2014;" horiz-adv-x="1429" 
d="M82 748q0 9 7 16.5t17 7.5h1217q10 0 17.5 -7.5t7.5 -16.5q0 -11 -7.5 -19t-17.5 -8h-1217q-10 0 -17 8t-7 19z" />
    <glyph glyph-name="quoteleft" unicode="&#x2018;" horiz-adv-x="243" 
d="M186 1479q7 0 12.5 -9.5t2.5 -17.5l-41 -201q-10 -31 -47 -26q-15 2 -25 15.5t-4 35.5l63 188q5 11 16.5 16t22.5 -1z" />
    <glyph glyph-name="quoteright" unicode="&#x2019;" horiz-adv-x="243" 
d="M98 1227q-7 0 -12 9t-2 17l41 201q10 32 47 27q15 -2 25 -15.5t4 -35.5l-64 -189q-5 -11 -16.5 -15.5t-22.5 1.5z" />
    <glyph glyph-name="quotesinglbase" unicode="&#x201a;" horiz-adv-x="1228" 
d="M43 -133q-8 2 -11 11.5t1 17.5l76 190q15 28 51 18q14 -5 20 -18.5t-2 -36.5l-96 -174q-6 -11 -18 -13t-21 5z" />
    <glyph glyph-name="quotedblleft" unicode="&#x201c;" horiz-adv-x="393" 
d="M336 1479q7 0 12 -9.5t2 -17.5l-41 -201q-10 -31 -47 -26q-15 2 -25 15.5t-4 35.5l64 188q5 11 16.5 16t22.5 -1zM84 1276l63 188q5 11 16.5 16t22.5 -1q7 0 12.5 -9.5t2.5 -17.5l-41 -201q-10 -31 -47 -26q-15 2 -25 15.5t-4 35.5z" />
    <glyph glyph-name="quotedblright" unicode="&#x201d;" horiz-adv-x="393" 
d="M98 1227q-7 0 -12 9t-2 17l41 201q10 32 47 27q15 -2 25 -15.5t4 -35.5l-64 -189q-5 -11 -16.5 -15.5t-22.5 1.5zM233 1253l41 201q10 32 48 27q15 -2 24.5 -15.5t3.5 -35.5l-63 -189q-5 -11 -16.5 -15.5t-22.5 1.5q-7 0 -12.5 9t-2.5 17z" />
    <glyph glyph-name="quotedblbase" unicode="&#x201e;" horiz-adv-x="1228" 
d="M43 -133q-8 2 -11 11.5t1 17.5l76 190q15 28 51 18q14 -5 20 -18.5t-2 -36.5l-96 -174q-6 -11 -18 -13t-21 5z" />
    <glyph glyph-name="dagger" unicode="&#x2020;" horiz-adv-x="655" 
d="M324 819q-9 0 -17 7.5t-8 17.5v522h-213q-10 0 -17.5 8t-7.5 17q0 11 7.5 18.5t17.5 7.5h213v176q0 10 8 17.5t17 7.5q11 0 18.5 -7.5t7.5 -17.5v-176h219q10 0 17.5 -7.5t7.5 -18.5q0 -9 -7.5 -17t-17.5 -8h-219v-522q0 -10 -7.5 -17.5t-18.5 -7.5z" />
    <glyph glyph-name="daggerdbl" unicode="&#x2021;" horiz-adv-x="655" 
d="M324 819q-9 0 -17 7.5t-8 17.5v215h-213q-10 0 -17.5 7.5t-7.5 16.5q0 11 7.5 19t17.5 8h213v256h-213q-10 0 -17.5 8t-7.5 17q0 11 7.5 18.5t17.5 7.5h213v176q0 10 8 17.5t17 7.5q11 0 18.5 -7.5t7.5 -17.5v-176h219q10 0 17.5 -7.5t7.5 -18.5q0 -9 -7.5 -17t-17.5 -8
h-219v-256h219q10 0 17.5 -8t7.5 -19q0 -9 -7.5 -16.5t-17.5 -7.5h-219v-215q0 -10 -7.5 -17.5t-18.5 -7.5z" />
    <glyph glyph-name="bullet" unicode="&#x2022;" horiz-adv-x="544" 
d="M272 604q-62 0 -105.5 46t-43.5 108q0 63 43 106t106 43t106.5 -43t43.5 -106q0 -62 -44 -108t-106 -46z" />
    <glyph glyph-name="ellipsis" unicode="&#x2026;" horiz-adv-x="618" 
d="M563 -2q-23 0 -39 17t-16 40t16 39.5t39 16.5t39 -16.5t16 -39.5t-16 -40t-39 -17zM82 55q0 23 16 39.5t39 16.5t39.5 -16.5t16.5 -39.5t-16.5 -40t-39.5 -17t-39 17t-16 40zM299 55q0 23 16 39.5t39 16.5t39.5 -16.5t16.5 -39.5t-16.5 -40t-39.5 -17t-39 17t-16 40z" />
    <glyph glyph-name="perthousand" unicode="&#x2030;" horiz-adv-x="1445" 
d="M86 0q-8 0 -12 2q-20 16 -8 35l761 1388q4 9 15 12.5t20 -1.5q21 -11 10 -33l-763 -1391q-6 -12 -23 -12zM61 1126q0 96 59.5 165t143.5 69q83 0 142 -69t59 -165q0 -97 -59 -165t-142 -68q-85 0 -144 68t-59 165zM111 1126q0 -76 45 -130t108 -54q62 0 107 54t45 130
q0 75 -45 129t-107 54q-63 0 -108 -54t-45 -129zM471 281q0 96 59.5 164.5t143.5 68.5q83 0 141.5 -68.5t58.5 -164.5q0 -97 -58.5 -165.5t-141.5 -68.5q-85 0 -144 68.5t-59 165.5zM522 281q0 -77 44.5 -131t107.5 -54t107 54t44 131q0 75 -44 128.5t-107 53.5
t-107.5 -53.5t-44.5 -128.5zM961 281q0 96 59 164.5t143 68.5q83 0 142 -68.5t59 -164.5q0 -97 -59 -165.5t-142 -68.5q-84 0 -143 68.5t-59 165.5zM1012 281q0 -77 44 -131t107 -54t107.5 54t44.5 131q0 75 -44.5 128.5t-107.5 53.5t-107 -53.5t-44 -128.5z" />
    <glyph glyph-name="guilsinglleft" unicode="&#x2039;" horiz-adv-x="659" 
d="M571 172q-7 0 -16 6l-479 322q-15 11 -15 26q0 10 13 19l481 338q20 11 37 -6q8 -9 6 -21t-12 -18l-449 -312l449 -303q9 -5 11 -17.5t-5 -23.5q-10 -10 -21 -10z" />
    <glyph glyph-name="guilsinglright" unicode="&#x203a;" horiz-adv-x="659" 
d="M88 172q-10 0 -20 10q-7 11 -5 23.5t11 17.5l448 303l-448 312q-10 6 -12 18t6 21q17 17 36 6l482 -338q12 -8 12 -19q0 -16 -14 -26l-480 -322q-9 -6 -16 -6z" />
    <glyph glyph-name="fraction" unicode="&#x2044;" horiz-adv-x="493" 
d="M-221 -29q-9 3 -12.5 13.5t2.5 19.5l915 1448q11 17 33 6q10 -4 12 -15t-4 -20l-913 -1448q-7 -11 -33 -4z" />
    <glyph glyph-name="uni2070" unicode="&#x2070;" horiz-adv-x="872" 
d="M436 848q-155 0 -265 110t-110 265t110 264.5t265 109.5t265 -109.5t110 -264.5t-110 -265t-265 -110zM113 1223q0 -134 95 -230t228 -96q132 0 229 96.5t97 229.5q0 132 -97 227.5t-229 95.5q-133 0 -228 -95.5t-95 -227.5z" />
    <glyph glyph-name="uni2074" unicode="&#x2074;" horiz-adv-x="587" 
d="M399 864q-9 0 -16.5 8t-7.5 17v135h-332q-9 0 -18 6q-8 12 -5 21l119 528q3 9 12.5 14.5t20.5 3.5q21 -9 18 -28l-114 -496h299v242q0 9 7.5 16.5t16.5 7.5q11 0 20 -7.5t9 -16.5v-242h92q11 0 19 -8t8 -18q0 -9 -8 -16t-19 -7h-92v-135q0 -9 -9.5 -17t-19.5 -8z" />
    <glyph glyph-name="uni2075" unicode="&#x2075;" horiz-adv-x="571" 
d="M266 838q-77 0 -141.5 37.5t-99.5 101.5q-13 16 8 33q9 5 20 1.5t15 -12.5q31 -50 84 -80t114 -30q91 0 153 58.5t62 144.5q0 87 -60 137.5t-163 50.5h-149q-13 0 -21 8q-7 14 -4 25l66 264q7 20 22 20h246q24 0 24 -26q0 -10 -6.5 -17.5t-17.5 -7.5h-223l-54 -215h117
q124 0 198 -65.5t74 -173.5q0 -106 -76 -180t-188 -74z" />
    <glyph glyph-name="uni2076" unicode="&#x2076;" horiz-adv-x="614" 
d="M307 858q-110 0 -188 78t-78 188q0 17 1 30t5.5 29.5t8.5 28t17 34.5t23 39.5t33 52.5t42 64t55.5 83.5t66.5 101.5q8 13 22.5 12t21 -11.5t-0.5 -26.5l-125 -191q67 28 132 16.5t116 -46.5t82.5 -93t31.5 -123q0 -110 -78.5 -188t-187.5 -78zM92 1124q0 -89 63 -152
t152 -63t153 63t64 152t-64 152t-153 63t-152 -63t-63 -152z" />
    <glyph glyph-name="uni2077" unicode="&#x2077;" horiz-adv-x="516" 
d="M96 870q-2 0 -10 4q-8 5 -11 14.5t3 18.5l352 641h-385q-9 0 -17 7.5t-8 15.5q0 10 8 18t17 8h428q11 0 21 -14q3 -13 0 -22l-373 -676q-9 -15 -25 -15z" />
    <glyph glyph-name="uni2078" unicode="&#x2078;" horiz-adv-x="585" 
d="M293 872q-104 0 -178 67t-74 163q0 69 43 125.5t113 83.5q-76 49 -76 129q0 64 50.5 110.5t121.5 46.5t121.5 -46.5t50.5 -110.5q0 -81 -74 -129q69 -27 111.5 -83.5t42.5 -125.5q0 -96 -74 -163t-178 -67zM90 1102q0 -75 59.5 -127.5t143.5 -52.5q85 0 146 52.5
t61 127.5q0 73 -61 125.5t-146 52.5q-83 0 -143 -52.5t-60 -125.5zM170 1440q0 -46 36.5 -78.5t86.5 -32.5q52 0 88.5 32.5t36.5 78.5q0 45 -36.5 76.5t-88.5 31.5q-50 0 -86.5 -32t-36.5 -76z" />
    <glyph glyph-name="uni2079" unicode="&#x2079;" horiz-adv-x="614" 
d="M307 1597q110 0 188 -78t78 -188q0 -16 -1.5 -28.5t-3 -24t-8 -26.5t-11.5 -27.5t-18 -34.5t-24 -39.5t-33 -51.5t-40 -61t-51 -77.5t-61 -92.5q-8 -13 -22.5 -12t-21 12t0.5 27l124 190q-67 -28 -132 -16.5t-116 46.5t-82.5 93t-31.5 123q0 110 78.5 188t187.5 78z
M90 1331q0 -89 64 -152t153 -63t152 63t63 152t-63 152t-152 63t-153 -63t-64 -152z" />
    <glyph glyph-name="uni2080" unicode="&#x2080;" horiz-adv-x="872" 
d="M436 -123q-155 0 -265 110t-110 265q0 154 110 264.5t265 110.5t265 -110.5t110 -264.5q0 -155 -110 -265t-265 -110zM113 252q0 -134 95 -230t228 -96q132 0 229 96.5t97 229.5q0 132 -97 227.5t-229 95.5q-133 0 -228 -95.5t-95 -227.5z" />
    <glyph glyph-name="uni2081" unicode="&#x2081;" horiz-adv-x="210" 
d="M133 -123q-9 0 -16.5 8.5t-7.5 18.5v667l-46 -18q-21 -9 -34 14q-8 23 12 33l82 37q18 4 24 -2q13 -10 13 -23v-708q0 -10 -8 -18.5t-19 -8.5z" />
    <glyph glyph-name="uni2082" unicode="&#x2082;" horiz-adv-x="546" 
d="M57 -123q-21 0 -24 14q-2 4 -1.5 13.5t3.5 13.5q53 56 142.5 153.5t154.5 168.5t71 77q27 37 32.5 80t-15.5 86q-24 43 -65.5 66.5t-92.5 17.5q-111 -6 -170 -100q-3 -8 -12.5 -10t-20.5 2q-18 12 -10 37q65 102 209 118q67 3 121.5 -25.5t81.5 -84.5q29 -53 21.5 -112
t-46.5 -107q-30 -40 -323 -359h368q25 0 25 -28q0 -21 -25 -21h-424z" />
    <glyph glyph-name="uni2083" unicode="&#x2083;" horiz-adv-x="514" 
d="M231 -123q-62 0 -119 27t-89 73q-8 21 6 35q17 9 34 -4q60 -86 168 -86q80 0 137.5 49t57.5 113q0 71 -54 117.5t-147 46.5q-28 0 -28 22q0 27 26 27q71 0 117.5 36t46.5 91q0 53 -48 89t-118 36q-75 0 -123 -41q-16 -13 -35 0q-6 7 -5 17t8 16q67 57 155 57
q89 0 151 -51.5t62 -122.5q0 -48 -27.5 -87t-74.5 -61q65 -28 103 -79t38 -113q0 -85 -71 -146t-171 -61z" />
    <glyph glyph-name="uni2084" unicode="&#x2084;" horiz-adv-x="587" 
d="M399 -123q-9 0 -16.5 8t-7.5 17v135h-332q-9 0 -18 6q-8 12 -5 20l119 529q3 9 12.5 14.5t20.5 3.5q8 -3 13.5 -11t4.5 -17l-114 -496h299v242q0 9 7.5 16.5t16.5 7.5q11 0 20 -7.5t9 -16.5v-242h92q10 0 18.5 -8t8.5 -19q0 -9 -8 -15.5t-19 -6.5h-92v-135q0 -9 -9.5 -17
t-19.5 -8z" />
    <glyph glyph-name="uni2085" unicode="&#x2085;" horiz-adv-x="571" 
d="M266 -123q-77 0 -141.5 37.5t-99.5 101.5q-13 16 8 33q9 5 20 2t15 -12q31 -50 84 -80.5t114 -30.5q91 0 153 58.5t62 144.5q0 87 -60 137.5t-163 50.5h-149q-12 0 -21 9q-7 13 -4 24l66 264q7 21 22 21h246q24 0 24 -27q0 -10 -6.5 -17t-17.5 -7h-223l-54 -215h117
q124 0 198 -66t74 -174q0 -106 -76 -180t-188 -74z" />
    <glyph glyph-name="uni2086" unicode="&#x2086;" horiz-adv-x="614" 
d="M307 -123q-110 0 -188 78t-78 188q0 17 1 30t5.5 29.5t8.5 28t17 34.5t23 39.5t33 52.5t42 64t55.5 83.5t66.5 101.5q8 13 22.5 12t21 -11.5t-0.5 -26.5l-125 -191q67 28 132 16.5t116 -46.5t82.5 -93t31.5 -123q0 -110 -78.5 -188t-187.5 -78zM92 143q0 -89 63 -152
t152 -63t153 63t64 152t-64 152t-153 63t-152 -63t-63 -152z" />
    <glyph glyph-name="uni2087" unicode="&#x2087;" horiz-adv-x="516" 
d="M96 -123q-2 0 -10 4q-8 5 -11 14.5t3 18.5l352 641h-385q-9 0 -17 7.5t-8 15.5q0 10 8 18t17 8h428q11 0 21 -14q3 -13 0 -23l-373 -676q-8 -14 -25 -14z" />
    <glyph glyph-name="uni2088" unicode="&#x2088;" horiz-adv-x="585" 
d="M293 -123q-104 0 -178 66.5t-74 162.5q0 69 43 125.5t113 83.5q-76 49 -76 129q0 65 51 111.5t121 46.5t121 -46.5t51 -111.5q0 -81 -74 -129q69 -27 111.5 -83.5t42.5 -125.5q0 -96 -74 -162.5t-178 -66.5zM90 106q0 -75 59.5 -127.5t143.5 -52.5q85 0 146 52.5
t61 127.5q0 73 -61 126t-146 53q-83 0 -143 -53t-60 -126zM170 444q0 -45 36.5 -77.5t86.5 -32.5q52 0 88.5 32t36.5 78q0 45 -36.5 77t-88.5 32q-50 0 -86.5 -32.5t-36.5 -76.5z" />
    <glyph glyph-name="uni2089" unicode="&#x2089;" horiz-adv-x="614" 
d="M307 616q110 0 188 -78t78 -188q0 -16 -1.5 -28.5t-3 -24t-8 -26.5t-11.5 -27.5t-18 -34.5t-24 -39.5t-33 -51.5t-40 -61t-51 -77.5t-61 -92.5q-8 -13 -22.5 -12t-21 12t0.5 27l124 190q-67 -28 -132 -16.5t-116 46.5t-82.5 93t-31.5 123q0 110 78.5 188t187.5 78z
M90 350q0 -89 64 -152t153 -63t152 63t63 152t-63 152t-152 63t-153 -63t-64 -152z" />
    <glyph glyph-name="franc" unicode="&#x20a3;" horiz-adv-x="1200" 
d="M289 0q-11 0 -18 7t-7 18v348h-178q-11 0 -18 7t-7 17q0 11 7.5 18t17.5 7h178v983q0 11 7.5 19t17.5 8h825q10 0 17.5 -8t7.5 -19q0 -9 -7.5 -17t-17.5 -8h-801v-641h754q11 0 18 -7t7 -17q0 -9 -7.5 -17t-17.5 -8h-754v-268h201q10 0 17.5 -7t7.5 -18q0 -10 -7 -17
t-18 -7h-201v-348q0 -11 -7 -18t-17 -7z" />
    <glyph glyph-name="Euro" unicode="&#x20ac;" horiz-adv-x="1263" 
d="M997 0q-248 0 -441.5 152.5t-252.5 388.5h-219q-8 0 -15.5 8t-7.5 18q0 9 7.5 17t15.5 8h207q-10 68 -10 125q0 63 8 112h-205q-8 0 -15.5 7t-7.5 18q0 9 7.5 16t15.5 7h215q54 241 249.5 399t448.5 158q73 0 162 -21q10 -1 16 -9.5t3 -17.5q-6 -24 -31 -20
q-63 16 -150 16q-233 0 -412.5 -142.5t-234.5 -362.5h488q10 0 16 -7t6 -16q0 -25 -22 -25h-496q-10 -62 -10 -112q0 -63 12 -125h494q10 0 16 -7.5t6 -17.5q0 -26 -22 -26h-484q59 -215 237 -352.5t406 -137.5q82 0 154 17q8 2 18 -4t13 -17q0 -9 -6 -17.5t-15 -9.5
q-88 -20 -164 -20z" />
    <glyph glyph-name="uni2116" unicode="&#x2116;" horiz-adv-x="2461" 
d="M145 0q-9 0 -15.5 7.5t-6.5 19.5v1384q0 20 16 23q16 6 29 -7l1034 -1329v1313q0 10 7 17.5t16 7.5q12 0 19 -7t7 -18v-1384q0 -22 -16 -25q-2 -2 -10 -2q-12 0 -19 10l-1034 1327v-1310q0 -12 -7.5 -19.5t-19.5 -7.5zM1391 950q0 131 65 242.5t176.5 176.5t243.5 65
q131 0 242 -65t176 -176.5t65 -242.5q0 -132 -65 -243.5t-176 -176.5t-242 -65q-132 0 -243.5 65t-176.5 176.5t-65 243.5zM1440 950q0 -119 58 -219.5t158.5 -158.5t219.5 -58q181 0 307.5 127t126.5 309q0 119 -57.5 219t-157.5 157.5t-219 57.5q-182 0 -309 -126.5
t-127 -307.5z" />
    <glyph glyph-name="trademark" unicode="&#x2122;" horiz-adv-x="2891" 
d="M1100 1434q9 0 16.5 -7.5t7.5 -17.5t-7.5 -17.5t-16.5 -7.5h-473v-1359q0 -11 -7.5 -18t-17.5 -7q-9 0 -16.5 7.5t-7.5 17.5v1359h-472q-10 0 -17 7t-7 18t7 18t17 7h994zM1309 25v1386q0 18 18 25q16 6 27 -9l676 -921l673 921q15 15 29 9q16 -6 16 -25v-1386
q0 -11 -7 -18t-17 -7q-9 0 -17 7.5t-8 17.5v1310l-649 -884q-7 -11 -20.5 -11t-20.5 11l-649 884v-1310q0 -10 -8 -17.5t-19 -7.5q-9 0 -16.5 7.5t-7.5 17.5z" />
    <glyph glyph-name="oneeighth" unicode="&#x215b;" horiz-adv-x="1273" 
d="M127 674q-9 0 -17 8t-8 18v668l-45 -18q-21 -9 -34 14q-8 23 12 33l82 37q18 4 24 -2q13 -10 13 -23v-709q0 -10 -8 -18t-19 -8zM-37 4l916 1448q11 16 32 6q10 -4 12.5 -15t-3.5 -20l-914 -1448q-7 -11 -33 -4q-9 3 -12.5 13.5t2.5 19.5zM729 229q0 69 43 125.5
t113 83.5q-76 49 -76 129q0 65 51 111.5t121 46.5t121 -46.5t51 -111.5q0 -81 -74 -129q69 -27 111.5 -83.5t42.5 -125.5q0 -96 -74 -162.5t-178 -66.5t-178 66.5t-74 162.5zM778 229q0 -75 59.5 -127.5t143.5 -52.5q85 0 146 52.5t61 127.5q0 73 -61 126t-146 53
q-83 0 -143 -53t-60 -126zM858 567q0 -45 36.5 -77.5t86.5 -32.5q52 0 88.5 32t36.5 78q0 45 -36.5 77t-88.5 32q-50 0 -86.5 -32.5t-36.5 -76.5z" />
    <glyph glyph-name="threeeighths" unicode="&#x215c;" horiz-adv-x="1593" 
d="M231 713q-62 0 -119 27t-89 73q-8 21 6 35q17 9 34 -4q60 -86 168 -86q80 0 137.5 49t57.5 113q0 71 -54 117t-147 46q-28 0 -28 23q0 27 26 27q71 0 117.5 36t46.5 91q0 53 -48 88.5t-118 35.5q-75 0 -123 -41q-16 -13 -35 0q-6 7 -5 17t8 16q69 58 155 58
q89 0 151 -51.5t62 -122.5q0 -48 -27.5 -87t-74.5 -61q65 -28 103 -79t38 -113q0 -85 -71 -146t-171 -61zM283 4l915 1448q11 17 33 6q10 -4 12 -15t-4 -20l-913 -1448q-7 -11 -33 -4q-9 3 -12.5 13.5t2.5 19.5zM1049 229q0 70 42.5 126t112.5 83q-76 49 -76 129
q0 65 51 111.5t121 46.5q71 0 122 -47t51 -111q0 -81 -74 -129q69 -27 111 -83.5t42 -125.5q0 -96 -74 -162.5t-178 -66.5t-177.5 66.5t-73.5 162.5zM1098 229q0 -75 59.5 -127.5t142.5 -52.5q85 0 146 52.5t61 127.5q0 73 -61 126t-146 53q-83 0 -142.5 -52.5t-59.5 -126.5
zM1178 567q0 -45 36 -77.5t86 -32.5q52 0 88.5 32t36.5 78q0 45 -36.5 77t-88.5 32q-50 0 -86 -32.5t-36 -76.5z" />
    <glyph glyph-name="fiveeighths" unicode="&#x215d;" horiz-adv-x="1650" 
d="M266 674q-77 0 -141.5 37.5t-99.5 101.5q-13 16 8 33q9 5 20 2t15 -12q31 -50 84 -80.5t114 -30.5q91 0 153 58.5t62 144.5q0 87 -60 137.5t-163 50.5h-149q-13 0 -21 8q-7 14 -4 25l66 264q7 21 22 21h246q24 0 24 -27q0 -10 -6.5 -17.5t-17.5 -7.5h-223l-54 -215h117
q124 0 198 -65.5t74 -173.5q0 -106 -76 -180t-188 -74zM340 4l915 1448q11 17 33 6q10 -4 12 -15t-4 -20l-913 -1448q-7 -11 -33 -4q-9 3 -12.5 13.5t2.5 19.5zM1106 229q0 69 43 125.5t113 83.5q-76 49 -76 129q0 65 51 111.5t121 46.5t121 -46.5t51 -111.5q0 -81 -74 -129
q69 -27 111.5 -83.5t42.5 -125.5q0 -96 -74 -162.5t-178 -66.5t-178 66.5t-74 162.5zM1155 229q0 -75 59.5 -127.5t143.5 -52.5q85 0 146 52.5t61 127.5q0 73 -61 126t-146 53q-83 0 -143 -53t-60 -126zM1235 567q0 -45 36.5 -77.5t86.5 -32.5q52 0 88.5 32t36.5 78
q0 45 -36.5 77t-88.5 32q-50 0 -86.5 -32.5t-36.5 -76.5z" />
    <glyph glyph-name="seveneighths" unicode="&#x215e;" horiz-adv-x="1595" 
d="M96 707q-2 0 -10 4q-8 5 -10.5 14t2.5 18l352 641h-385q-9 0 -17 7.5t-8 15.5q0 10 8 18.5t17 8.5h428q10 0 21 -15q3 -13 0 -22l-373 -676q-8 -14 -25 -14zM285 4l915 1448q11 17 33 6q10 -4 12 -15t-4 -20l-913 -1448q-7 -11 -33 -4q-9 3 -12.5 13.5t2.5 19.5z
M1051 229q0 70 42.5 126t112.5 83q-76 49 -76 129q0 64 51 111t122 47q70 0 121 -46.5t51 -111.5q0 -81 -74 -129q69 -27 111 -83.5t42 -125.5q0 -96 -73.5 -162.5t-177.5 -66.5t-178 66.5t-74 162.5zM1100 229q0 -75 59.5 -127.5t143.5 -52.5q85 0 145.5 52.5t60.5 127.5
q0 74 -60.5 126.5t-145.5 52.5q-83 0 -143 -53t-60 -126zM1180 567q0 -45 36.5 -77.5t86.5 -32.5q52 0 88 32t36 78q0 45 -36 77t-88 32q-50 0 -86.5 -32.5t-36.5 -76.5z" />
    <glyph glyph-name="arrowleft" unicode="&#x2190;" horiz-adv-x="1554" 
d="M70 698q-8 8 -8 18t8 17l247 250q17 17 35 0q8 -7 8 -17t-8 -18l-209 -209h1325q11 0 18 -7t7 -17q0 -9 -7.5 -17t-17.5 -8h-1321l205 -209q8 -6 8 -16.5t-8 -18.5q-18 -14 -35 0z" />
    <glyph glyph-name="arrowup" unicode="&#x2191;" horiz-adv-x="673" 
d="M68 1141q-14 17 0 35l251 247q17 17 35 0l250 -247q8 -8 8 -18t-8 -17q-18 -17 -35 0l-209 209v-1325q0 -11 -7 -18t-17 -7q-9 0 -17 7.5t-8 17.5v1321l-209 -205q-6 -7 -16 -7t-18 7z" />
    <glyph glyph-name="arrowright" unicode="&#x2192;" horiz-adv-x="1554" 
d="M1202 985q18 14 35 0l248 -252q17 -17 0 -35l-248 -249q-17 -17 -35 0q-17 17 0 34l209 209h-1325q-10 0 -17.5 7t-7.5 18q0 9 7.5 16.5t17.5 7.5h1321l-205 209q-8 6 -8 17t8 18z" />
    <glyph glyph-name="arrowdown" unicode="&#x2193;" horiz-adv-x="673" 
d="M68 256q-14 18 0 35q8 7 18 7t16 -7l209 -205v1321q0 10 8 17.5t17 7.5q10 0 17 -7t7 -18v-1325l209 209q17 17 35 0q8 -7 8 -17t-8 -18l-250 -248q-8 -8 -18 -8t-17 8z" />
    <glyph glyph-name="arrowboth" unicode="&#x2194;" horiz-adv-x="1554" 
d="M70 657q-8 7 -8 17t8 18l247 250q7 8 17 8t18 -8t8 -18t-8 -17l-209 -209l1264 2l-205 209q-8 6 -8 16.5t8 18.5q18 14 35 0l248 -252q17 -18 0 -35l-248 -249q-7 -8 -17 -8t-18 8q-17 17 0 34l209 209l-1264 -2l205 -209q8 -6 8 -16t-8 -18q-18 -14 -35 0z" />
    <glyph glyph-name="arrowupdn" unicode="&#x2195;" horiz-adv-x="673" 
d="M319 1382q7 8 17 8t18 -8l250 -247q8 -7 8 -17t-8 -18t-18 -8t-17 8l-209 209l2 -1264l209 205q6 8 16.5 8t18.5 -8q14 -18 0 -35l-252 -248q-18 -17 -35 0l-249 248q-8 7 -8 17t8 18q17 17 34 0l209 -209l-2 1264l-209 -205q-6 -8 -16 -8t-18 8q-14 18 0 35z" />
    <glyph glyph-name="uni2196" unicode="&#x2196;" horiz-adv-x="1150" 
d="M467 1196q0 -10 -8 -18t-17 -7l-292 -4l933 -934q7 -8 6.5 -18t-6.5 -16q-17 -17 -34 0l-938 938v-297q0 -10 -7.5 -17.5t-17.5 -7.5t-17.5 7.5t-7.5 17.5l2 352q0 10 7.5 17.5t17.5 7.5l354 4q21 -4 25 -25z" />
    <glyph glyph-name="uni2197" unicode="&#x2197;" horiz-adv-x="1150" 
d="M684 1196q4 21 25 25l354 -4q10 0 17 -7t7 -18l3 -352q0 -10 -7 -17.5t-18 -7.5t-18 7.5t-7 17.5v297l-938 -938q-17 -17 -34 0q-6 6 -6.5 16t6.5 18l933 934l-292 4q-9 -1 -17 7t-8 18z" />
    <glyph glyph-name="uni2198" unicode="&#x2198;" horiz-adv-x="1150" 
d="M684 215q0 11 8 19t17 6l292 4l-933 934q-7 8 -6.5 18t6.5 16q17 17 34 0l938 -938v297q0 11 7 18t18 7t18 -7t7 -18l-3 -352q0 -11 -6.5 -17.5t-17.5 -6.5l-354 -5q-21 4 -25 25z" />
    <glyph glyph-name="uni2199" unicode="&#x2199;" horiz-adv-x="1150" 
d="M467 215q-4 -21 -25 -25l-354 5q-11 0 -18 7t-7 17l-2 352q0 11 7.5 18t17.5 7t17.5 -7t7.5 -18v-297l938 938q17 17 34 0q6 -6 6.5 -16t-6.5 -18l-933 -934l292 -4q9 2 17 -6t8 -19z" />
    <glyph glyph-name="minus" unicode="&#x2212;" horiz-adv-x="880" 
d="M125 682q-8 0 -15.5 8.5t-7.5 18.5q0 9 7.5 16.5t15.5 7.5h631q10 0 16 -7t6 -17q0 -11 -6 -19t-16 -8h-631z" />
    <glyph glyph-name="approxequal" unicode="&#x2248;" horiz-adv-x="1136" 
d="M375 664q-89 0 -161.5 51t-109.5 139q-4 10 1 20t14 13t18.5 -1.5t12.5 -13.5q32 -75 91.5 -117t133.5 -42q35 0 69 13.5t53 26.5t56 42q35 28 60.5 45.5t69.5 33t91 15.5q87 0 156.5 -49t101.5 -133q3 -9 -1.5 -20t-14.5 -15q-25 -4 -31 16q-26 71 -82.5 111.5
t-128.5 40.5q-39 0 -76.5 -14t-56.5 -27t-59 -43q-53 -44 -100.5 -68t-106.5 -24zM104 481q-4 10 1 20t14 13t18.5 -1t12.5 -13q32 -75 92 -117.5t133 -42.5q35 0 69 13.5t53 26.5t56 42q35 28 60.5 45.5t69.5 33t91 15.5q87 0 156.5 -49t101.5 -133q3 -9 -1.5 -20
t-14.5 -15q-25 -4 -31 16q-26 71 -82.5 111.5t-128.5 40.5q-39 0 -76.5 -14t-56.5 -27t-59 -43q-53 -44 -100.5 -68t-106.5 -24q-89 0 -161.5 51t-109.5 139z" />
    <glyph glyph-name="lessequal" unicode="&#x2264;" horiz-adv-x="737" 
d="M635 315q-7 0 -17 7l-520 321q-14 11 -14 27q0 10 12 18l522 338q20 11 37 -6q8 -9 6 -21t-12 -18l-489 -311l489 -303q9 -5 11 -17.5t-5 -23.5q-11 -11 -20 -11zM61 137q0 10 6.5 17.5t16.5 7.5h569q8 0 15.5 -8t7.5 -17q0 -10 -7.5 -18t-15.5 -8h-569q-10 0 -16.5 7.5
t-6.5 18.5z" />
    <glyph glyph-name="greaterequal" unicode="&#x2265;" horiz-adv-x="737" 
d="M102 315q-9 0 -20 11q-7 11 -5 23.5t11 17.5l490 303l-490 311q-10 6 -12 18t6 21q17 17 37 6l522 -338q12 -8 12 -18q0 -16 -14 -27l-520 -321q-11 -7 -17 -7zM61 137q0 9 7.5 17t15.5 8h569q10 0 16.5 -7.5t6.5 -17.5q0 -11 -6.5 -18.5t-16.5 -7.5h-569q-8 0 -15.5 8
t-7.5 18z" />
    <glyph glyph-name="lozenge" unicode="&#x25ca;" horiz-adv-x="919" 
d="M102 723q0 5 7 16l321 480q10 14 27 14q10 0 18 -12l334 -476l4 -6q4 -8 4 -14t-4 -14l-4 -6l-334 -476q-8 -12 -18 -12q-17 0 -27 14l-321 476q-7 10 -7 16zM164 723l293 -430l299 432l-299 432z" />
    <glyph glyph-name="A.ss01" horiz-adv-x="1378" 
d="M88 14q-7 -14 -21 -14t-22.5 10.5t-1.5 24.5l621 1388q6 14 21.5 14.5t23.5 -14.5l626 -1388q7 -14 -2 -25t-23 -11t-20 15l-604 1338z" />
    <glyph glyph-name="B.ss01" horiz-adv-x="1257" 
d="M168 0q-10 0 -17.5 7t-7.5 18v1386q0 9 7.5 17t17.5 8h494q158 0 264 -94t106 -234q0 -138 -104 -248q-60 -63 -51 -110q7 -40 71 -66q238 -102 238 -313q0 -154 -108.5 -262.5t-262.5 -108.5h-647zM193 49h622q133 0 227.5 95t94.5 227q0 180 -207 266q-91 39 -103 102
q-15 72 66 156q88 91 88 213q0 119 -91.5 198.5t-227.5 79.5h-469v-1337z" />
    <glyph glyph-name="D.ss01" horiz-adv-x="1456" 
d="M594 965q0 12 -10 21t-23 9q-12 0 -21.5 -9t-9.5 -21t9.5 -21.5t21.5 -9.5q13 0 23 9.5t10 21.5zM143 168v14q15 -8 15 -26q0 -9 -8 -21q-3 6 -3 10l-2 9q-2 9 -2 14zM143 254v53q15 -11 15 -26q0 -16 -15 -27zM143 379v53q15 -11 15 -26q0 -16 -15 -27zM143 504v51
q15 -7 15 -25t-15 -26zM143 627v53q15 -11 15 -27q0 -15 -15 -26zM143 752v53q15 -11 15 -27q0 -15 -15 -26zM143 877v53q15 -11 15 -27q0 -15 -15 -26zM143 1001v52q15 -7 15 -27q0 -18 -15 -25zM143 1124v54q15 -11 15 -27t-15 -27zM143 1249v19q0 12 4 32q11 -11 11 -24
q0 -16 -15 -27zM158 219q0 12 9 21.5t21 9.5q13 0 22 -9.5t9 -21.5q0 -13 -8.5 -22t-22.5 -9q-12 0 -21 9t-9 22zM158 344q0 12 9 21.5t21 9.5q13 0 22 -9.5t9 -21.5q0 -14 -9 -23.5t-22 -9.5q-12 0 -21 10t-9 23zM158 467q0 13 9 22t21 9q14 0 22.5 -9t8.5 -22
q0 -12 -9 -21.5t-22 -9.5q-12 0 -21 9.5t-9 21.5zM158 592q0 12 9 21.5t21 9.5q13 0 22 -9.5t9 -21.5t-9 -21.5t-22 -9.5q-12 0 -21 9.5t-9 21.5zM158 717q0 12 9 21.5t21 9.5q13 0 22 -9.5t9 -21.5q0 -14 -9 -23.5t-22 -9.5q-12 0 -21 10t-9 23zM158 840q0 13 9 22.5
t21 9.5q13 0 22 -9t9 -23q0 -12 -9 -21.5t-22 -9.5q-12 0 -21 9.5t-9 21.5zM158 965q0 12 9 21t21 9q13 0 22 -9t9 -21t-9 -21.5t-22 -9.5q-12 0 -21 9.5t-9 21.5zM158 1090q0 12 9 21t21 9q13 0 22 -9t9 -21q0 -14 -8.5 -22.5t-22.5 -8.5q-12 0 -21 9t-9 22zM158 1212
q0 13 9 23t21 10q13 0 22 -9.5t9 -23.5q0 -12 -9 -21t-22 -9q-12 0 -21 9t-9 21zM158 1335q7 17 18 31q4 2 12 2q14 0 22.5 -9t8.5 -22q0 -12 -9 -21t-22 -9q-26 0 -30 28zM160 102q2 9 10 16t18 7q14 0 22.5 -8.5t8.5 -22.5q0 -12 -9 -21.5t-22 -9.5h-6q-15 22 -22 39z
M219 33q0 12 10 21t23 9q12 0 21.5 -9t9.5 -21q0 -14 -13 -27q-26 9 -49 25zM219 156q0 13 9.5 22.5t23.5 9.5q12 0 21.5 -9.5t9.5 -22.5q0 -12 -9.5 -21.5t-21.5 -9.5q-13 0 -23 9.5t-10 21.5zM219 281q0 13 9.5 21.5t23.5 8.5q12 0 21.5 -8.5t9.5 -21.5q0 -12 -9.5 -21.5
t-21.5 -9.5q-13 0 -23 9.5t-10 21.5zM219 406q0 12 10 21t23 9q12 0 21.5 -9t9.5 -21t-9.5 -21.5t-21.5 -9.5q-13 0 -23 9.5t-10 21.5zM219 530q0 12 10 21.5t23 9.5q12 0 21.5 -9.5t9.5 -21.5q0 -13 -9.5 -22.5t-21.5 -9.5q-14 0 -23.5 9.5t-9.5 22.5zM219 653q0 13 9.5 22
t23.5 9q12 0 21.5 -9t9.5 -22q0 -12 -9.5 -21t-21.5 -9q-13 0 -23 9t-10 21zM219 778q0 12 10 21.5t23 9.5q12 0 21.5 -9.5t9.5 -21.5t-9.5 -21t-21.5 -9q-13 0 -23 9t-10 21zM219 903q0 12 10 21.5t23 9.5q12 0 21.5 -9.5t9.5 -21.5q0 -13 -9.5 -22t-21.5 -9q-14 0 -23.5 9
t-9.5 22zM219 1026q0 14 9.5 23.5t23.5 9.5q12 0 21.5 -10t9.5 -23q0 -12 -9.5 -21.5t-21.5 -9.5q-13 0 -23 9.5t-10 21.5zM219 1151q0 12 10 21.5t23 9.5q12 0 21.5 -9.5t9.5 -21.5t-9.5 -21.5t-21.5 -9.5q-13 0 -23 9.5t-10 21.5zM219 1276q0 12 10 21.5t23 9.5
q12 0 21.5 -9.5t9.5 -21.5q0 -13 -9.5 -22t-21.5 -9q-14 0 -23.5 9t-9.5 22zM219 1401q0 1 1 3.5t1 4.5q21 12 45 18q17 -10 17 -26q0 -13 -9.5 -23t-21.5 -10q-14 0 -23.5 10t-9.5 23zM283 94q0 13 9 22t21 9t21.5 -9t9.5 -22q0 -12 -9.5 -21.5t-21.5 -9.5t-21 9.5t-9 21.5
zM283 219q0 12 9 21.5t21 9.5t21.5 -9.5t9.5 -21.5q0 -13 -9.5 -22t-21.5 -9t-21 9t-9 22zM283 344q0 12 9 21.5t21 9.5t21.5 -9.5t9.5 -21.5q0 -13 -9.5 -23t-21.5 -10t-21 10t-9 23zM283 467q0 13 9 22t21 9t21.5 -9t9.5 -22q0 -12 -9.5 -21.5t-21.5 -9.5t-21 9.5t-9 21.5
zM283 592q0 12 9 21.5t21 9.5t21.5 -9.5t9.5 -21.5t-9.5 -21.5t-21.5 -9.5t-21 9.5t-9 21.5zM283 717q0 12 9 21.5t21 9.5t21.5 -9.5t9.5 -21.5q0 -13 -9.5 -23t-21.5 -10t-21 10t-9 23zM283 840q0 13 9 22.5t21 9.5t21.5 -9.5t9.5 -22.5q0 -12 -9.5 -21.5t-21.5 -9.5
t-21 9.5t-9 21.5zM283 965q0 12 9 21t21 9t21.5 -9t9.5 -21t-9.5 -21.5t-21.5 -9.5t-21 9.5t-9 21.5zM283 1090q0 12 9 21t21 9t21.5 -9t9.5 -21q0 -13 -9.5 -22t-21.5 -9t-21 9t-9 22zM283 1212q0 13 9 23t21 10t21.5 -10t9.5 -23q0 -12 -9.5 -21t-21.5 -9t-21 9t-9 21z
M283 1337q0 13 9 22t21 9t21.5 -9t9.5 -22q0 -12 -9.5 -21t-21.5 -9t-21 9t-9 21zM301 1434h10h15q-4 -2 -13 -2q-8 0 -12 2zM305 0q2 0 4.5 1t3.5 1l9 -2h-13h-4zM344 33q0 12 9.5 21t21.5 9q13 0 23 -9t10 -21q0 -13 -9.5 -22t-23.5 -9q-12 0 -21.5 9t-9.5 22zM344 156
q0 13 9.5 22.5t21.5 9.5q14 0 23.5 -9.5t9.5 -22.5q0 -12 -10 -21.5t-23 -9.5q-12 0 -21.5 9.5t-9.5 21.5zM344 281q0 13 9.5 21.5t21.5 8.5q14 0 23.5 -8.5t9.5 -21.5q0 -12 -10 -21.5t-23 -9.5q-12 0 -21.5 9.5t-9.5 21.5zM344 406q0 12 9.5 21t21.5 9q13 0 23 -9t10 -21
t-10 -21.5t-23 -9.5q-12 0 -21.5 9.5t-9.5 21.5zM344 530q0 12 9.5 21.5t21.5 9.5q13 0 23 -9.5t10 -21.5q0 -13 -9.5 -22.5t-23.5 -9.5q-12 0 -21.5 9.5t-9.5 22.5zM344 653q0 13 9.5 22t21.5 9q14 0 23.5 -9t9.5 -22q0 -12 -10 -21t-23 -9q-12 0 -21.5 9t-9.5 21zM344 778
q0 12 9.5 21.5t21.5 9.5q13 0 23 -9.5t10 -21.5t-10 -21t-23 -9q-12 0 -21.5 9t-9.5 21zM344 903q0 12 9.5 21.5t21.5 9.5q13 0 23 -9.5t10 -21.5q0 -13 -9.5 -22t-23.5 -9q-12 0 -21.5 9t-9.5 22zM344 1026q0 13 9.5 23t21.5 10q13 0 23 -9.5t10 -23.5q0 -12 -10 -21.5
t-23 -9.5q-12 0 -21.5 9.5t-9.5 21.5zM344 1151q0 12 9.5 21.5t21.5 9.5q13 0 23 -9.5t10 -21.5t-10 -21.5t-23 -9.5q-12 0 -21.5 9.5t-9.5 21.5zM344 1276q0 12 9.5 21.5t21.5 9.5q13 0 23 -9.5t10 -21.5q0 -13 -9.5 -22t-23.5 -9q-12 0 -21.5 9t-9.5 22zM344 1401
q0 12 9.5 21.5t21.5 9.5q13 0 23 -9.5t10 -21.5q0 -13 -10 -23t-23 -10q-12 0 -21.5 10t-9.5 23zM408 94q0 14 8.5 22.5t21.5 8.5q12 0 21.5 -9t9.5 -22q0 -12 -9.5 -21.5t-21.5 -9.5q-13 0 -21.5 9.5t-8.5 21.5zM408 219q0 12 8.5 21.5t21.5 9.5q12 0 21.5 -9.5t9.5 -21.5
q0 -13 -9.5 -22t-21.5 -9q-13 0 -21.5 8.5t-8.5 22.5zM408 344q0 12 8.5 21.5t21.5 9.5q12 0 21.5 -9.5t9.5 -21.5q0 -13 -9.5 -23t-21.5 -10q-13 0 -21.5 9.5t-8.5 23.5zM408 467q0 14 8.5 22.5t21.5 8.5q12 0 21.5 -9t9.5 -22q0 -12 -9.5 -21.5t-21.5 -9.5
q-13 0 -21.5 9.5t-8.5 21.5zM408 592q0 12 8.5 21.5t21.5 9.5q12 0 21.5 -9.5t9.5 -21.5t-9.5 -21.5t-21.5 -9.5q-13 0 -21.5 9.5t-8.5 21.5zM408 717q0 12 8.5 21.5t21.5 9.5q12 0 21.5 -9.5t9.5 -21.5q0 -13 -9.5 -23t-21.5 -10q-13 0 -21.5 9.5t-8.5 23.5zM408 840
q0 14 8.5 23t21.5 9q12 0 21.5 -9.5t9.5 -22.5q0 -12 -9.5 -21.5t-21.5 -9.5q-13 0 -21.5 9.5t-8.5 21.5zM408 965q0 12 8.5 21t21.5 9q12 0 21.5 -9t9.5 -21t-9.5 -21.5t-21.5 -9.5q-13 0 -21.5 9.5t-8.5 21.5zM408 1090q0 12 8.5 21t21.5 9q12 0 21.5 -9t9.5 -21
q0 -13 -9.5 -22t-21.5 -9q-13 0 -21.5 8.5t-8.5 22.5zM408 1212q0 14 8.5 23.5t21.5 9.5q12 0 21.5 -10t9.5 -23q0 -12 -9.5 -21t-21.5 -9q-13 0 -21.5 9t-8.5 21zM408 1337q0 14 8.5 22.5t21.5 8.5q12 0 21.5 -9t9.5 -22q0 -12 -9.5 -21t-21.5 -9q-13 0 -21.5 9t-8.5 21z
M426 1434h25q-4 -2 -13 -2q-10 0 -12 2zM430 0q1 0 3.5 1t4.5 1l8 -2h-16zM469 33q0 12 9.5 21t21.5 9t21 -9t9 -21q0 -13 -9 -22t-21 -9t-21.5 9t-9.5 22zM469 156q0 13 9.5 22.5t21.5 9.5t21 -9.5t9 -22.5q0 -12 -9 -21.5t-21 -9.5t-21.5 9.5t-9.5 21.5zM469 281
q0 13 9.5 21.5t21.5 8.5t21 -8.5t9 -21.5q0 -12 -9 -21.5t-21 -9.5t-21.5 9.5t-9.5 21.5zM469 406q0 12 9.5 21t21.5 9t21 -9t9 -21t-9 -21.5t-21 -9.5t-21.5 9.5t-9.5 21.5zM469 530q0 12 9.5 21.5t21.5 9.5t21 -9.5t9 -21.5q0 -13 -9 -22.5t-21 -9.5t-21.5 9.5t-9.5 22.5z
M469 653q0 13 9.5 22t21.5 9t21 -9t9 -22q0 -12 -9 -21t-21 -9t-21.5 9t-9.5 21zM469 778q0 12 9.5 21.5t21.5 9.5t21 -9.5t9 -21.5t-9 -21t-21 -9t-21.5 9t-9.5 21zM469 903q0 12 9.5 21.5t21.5 9.5t21 -9.5t9 -21.5q0 -13 -9 -22t-21 -9t-21.5 9t-9.5 22zM469 1026
q0 13 9.5 23t21.5 10t21 -10t9 -23q0 -12 -9 -21.5t-21 -9.5t-21.5 9.5t-9.5 21.5zM469 1151q0 12 9.5 21.5t21.5 9.5t21 -9.5t9 -21.5t-9 -21.5t-21 -9.5t-21.5 9.5t-9.5 21.5zM469 1276q0 12 9.5 21.5t21.5 9.5t21 -9.5t9 -21.5q0 -13 -9 -22t-21 -9t-21.5 9t-9.5 22z
M469 1401q0 12 9.5 21.5t21.5 9.5t21 -9.5t9 -21.5q0 -13 -9 -23t-21 -10t-21.5 10t-9.5 23zM530 94q0 13 9.5 22t21.5 9q14 0 23.5 -9t9.5 -22q0 -12 -10 -21.5t-23 -9.5q-12 0 -21.5 9.5t-9.5 21.5zM530 219q0 12 9.5 21.5t21.5 9.5q13 0 23 -9.5t10 -21.5q0 -13 -9.5 -22
t-23.5 -9q-12 0 -21.5 9t-9.5 22zM530 344q0 12 9.5 21.5t21.5 9.5q13 0 23 -9.5t10 -21.5q0 -14 -10 -23.5t-23 -9.5q-12 0 -21.5 10t-9.5 23zM530 467q0 13 9.5 22t21.5 9q14 0 23.5 -9t9.5 -22q0 -12 -10 -21.5t-23 -9.5q-12 0 -21.5 9.5t-9.5 21.5zM530 592
q0 12 9.5 21.5t21.5 9.5q13 0 23 -9.5t10 -21.5t-10 -21.5t-23 -9.5q-12 0 -21.5 9.5t-9.5 21.5zM530 717q0 12 9.5 21.5t21.5 9.5q13 0 23 -9.5t10 -21.5q0 -13 -10 -23t-23 -10q-12 0 -21.5 10t-9.5 23zM530 840q0 13 9.5 22.5t21.5 9.5q14 0 23.5 -9.5t9.5 -22.5
q0 -12 -10 -21.5t-23 -9.5q-12 0 -21.5 9.5t-9.5 21.5zM530 1090q0 12 9.5 21t21.5 9q13 0 23 -9t10 -21q0 -13 -9.5 -22t-23.5 -9q-12 0 -21.5 9t-9.5 22zM530 1212q0 13 9.5 23t21.5 10q13 0 23 -9.5t10 -23.5q0 -12 -10 -21t-23 -9q-12 0 -21.5 9t-9.5 21zM530 1337
q0 13 9.5 22t21.5 9q14 0 23.5 -9t9.5 -22q0 -12 -10 -21t-23 -9q-12 0 -21.5 9t-9.5 21zM549 1434h26q-4 -2 -14 -2q-8 0 -12 2zM553 0q2 0 4.5 1t3.5 1q2 0 5 -1t5 -1h-18zM594 33q0 12 9 21t22 9q12 0 21 -9t9 -21q0 -13 -9 -22t-21 -9q-13 0 -22 9t-9 22zM594 156
q0 14 9 23t22 9q12 0 21 -9.5t9 -22.5q0 -12 -9 -21.5t-21 -9.5q-13 0 -22 9.5t-9 21.5zM594 281q0 13 8.5 21.5t22.5 8.5q12 0 21 -8.5t9 -21.5q0 -12 -9 -21.5t-21 -9.5q-13 0 -22 9.5t-9 21.5zM594 406q0 12 9 21t22 9q12 0 21 -9t9 -21t-9 -21.5t-21 -9.5q-13 0 -22 9.5
t-9 21.5zM594 530q0 12 9 21.5t22 9.5q12 0 21 -9.5t9 -21.5q0 -13 -9 -22.5t-21 -9.5q-13 0 -22 9t-9 23zM594 653q0 13 9 22t22 9q12 0 21 -9t9 -22q0 -12 -9 -21t-21 -9q-13 0 -22 9t-9 21zM594 778q0 12 9 21.5t22 9.5q12 0 21 -9.5t9 -21.5t-9 -21t-21 -9q-13 0 -22 9
t-9 21zM594 903q0 12 9 21.5t22 9.5q12 0 21 -9.5t9 -21.5q0 -13 -9 -22t-21 -9q-13 0 -22 9t-9 22zM594 1026q0 14 9 23.5t22 9.5q12 0 21 -10t9 -23q0 -12 -9 -21.5t-21 -9.5q-13 0 -22 9.5t-9 21.5zM594 1151q0 12 9 21.5t22 9.5q12 0 21 -9.5t9 -21.5t-9 -21.5t-21 -9.5
q-13 0 -22 9.5t-9 21.5zM594 1276q0 12 9 21.5t22 9.5q12 0 21 -9.5t9 -21.5q0 -13 -9 -22t-21 -9q-13 0 -22 8.5t-9 22.5zM594 1401q0 12 9 21.5t22 9.5q12 0 21 -9.5t9 -21.5q0 -13 -9 -23t-21 -10q-13 0 -22 9.5t-9 23.5zM655 94q0 13 9.5 22t21.5 9t21.5 -9t9.5 -22
q0 -12 -9.5 -21.5t-21.5 -9.5t-21.5 9.5t-9.5 21.5zM655 219q0 12 9.5 21.5t21.5 9.5t21.5 -9.5t9.5 -21.5q0 -13 -9.5 -22t-21.5 -9t-21.5 9t-9.5 22zM655 344q0 12 9.5 21.5t21.5 9.5t21.5 -9.5t9.5 -21.5q0 -13 -9.5 -23t-21.5 -10t-21.5 10t-9.5 23zM655 467
q0 13 9.5 22t21.5 9t21.5 -9t9.5 -22q0 -12 -9.5 -21.5t-21.5 -9.5t-21.5 9.5t-9.5 21.5zM655 592q0 12 9.5 21.5t21.5 9.5t21.5 -9.5t9.5 -21.5t-9.5 -21.5t-21.5 -9.5t-21.5 9.5t-9.5 21.5zM655 717q0 12 9.5 21.5t21.5 9.5t21.5 -9.5t9.5 -21.5q0 -13 -9.5 -23t-21.5 -10
t-21.5 10t-9.5 23zM655 840q0 13 9.5 22.5t21.5 9.5t21.5 -9.5t9.5 -22.5q0 -12 -9.5 -21.5t-21.5 -9.5t-21.5 9.5t-9.5 21.5zM655 965q0 12 9.5 21t21.5 9t21.5 -9t9.5 -21t-9.5 -21.5t-21.5 -9.5t-21.5 9.5t-9.5 21.5zM655 1090q0 12 9.5 21t21.5 9t21.5 -9t9.5 -21
q0 -13 -9.5 -22t-21.5 -9t-21.5 9t-9.5 22zM655 1212q0 13 9.5 23t21.5 10t21.5 -10t9.5 -23q0 -12 -9.5 -21t-21.5 -9t-21.5 9t-9.5 21zM655 1337q0 13 9.5 22t21.5 9t21.5 -9t9.5 -22q0 -12 -9.5 -21t-21.5 -9t-21.5 9t-9.5 21zM674 1434q14 0 22 -2h-10q-8 0 -12 2z
M680 0q1 0 3 1t3 1q2 0 4 -2h-10zM717 33q0 12 9.5 21t21.5 9q13 0 22.5 -9t9.5 -21q0 -15 -10 -25q-15 0 -35 -4q-18 11 -18 29zM717 156q0 13 9.5 22.5t21.5 9.5q14 0 23 -9t9 -23q0 -12 -9.5 -21.5t-22.5 -9.5q-12 0 -21.5 9.5t-9.5 21.5zM717 281q0 13 9.5 21.5
t21.5 8.5q14 0 23 -8.5t9 -21.5q0 -12 -9.5 -21.5t-22.5 -9.5q-12 0 -21.5 9.5t-9.5 21.5zM717 406q0 12 9.5 21t21.5 9q13 0 22.5 -9t9.5 -21t-9.5 -21.5t-22.5 -9.5q-12 0 -21.5 9.5t-9.5 21.5zM717 530q0 12 9.5 21.5t21.5 9.5q13 0 22.5 -9.5t9.5 -21.5q0 -14 -9 -23
t-23 -9q-12 0 -21.5 9.5t-9.5 22.5zM717 653q0 13 9.5 22t21.5 9q14 0 23 -9t9 -22q0 -12 -9.5 -21t-22.5 -9q-12 0 -21.5 9t-9.5 21zM717 778q0 12 9.5 21.5t21.5 9.5q13 0 22.5 -9.5t9.5 -21.5t-9.5 -21t-22.5 -9q-12 0 -21.5 9t-9.5 21zM717 903q0 12 9.5 21.5t21.5 9.5
q13 0 22.5 -9.5t9.5 -21.5q0 -13 -9 -22t-23 -9q-12 0 -21.5 9t-9.5 22zM717 1026q0 13 9.5 23t21.5 10q13 0 22.5 -9.5t9.5 -23.5q0 -12 -9.5 -21.5t-22.5 -9.5q-12 0 -21.5 9.5t-9.5 21.5zM717 1151q0 12 9.5 21.5t21.5 9.5q13 0 22.5 -9.5t9.5 -21.5t-9.5 -21.5
t-22.5 -9.5q-12 0 -21.5 9.5t-9.5 21.5zM717 1276q0 12 9.5 21.5t21.5 9.5q13 0 22.5 -9.5t9.5 -21.5q0 -13 -9 -22t-23 -9q-12 0 -21.5 9t-9.5 22zM717 1401q0 19 20 29q25 -5 29 -5q14 -11 14 -24q0 -14 -9.5 -23.5t-22.5 -9.5q-12 0 -21.5 10t-9.5 23zM780 94
q0 14 9 22.5t22 8.5q12 0 21.5 -9t9.5 -22q0 -12 -9.5 -21.5t-21.5 -9.5q-13 0 -22 9.5t-9 21.5zM780 219q0 12 9 21.5t22 9.5q12 0 21.5 -9.5t9.5 -21.5q0 -13 -9.5 -22t-21.5 -9q-13 0 -22 9t-9 22zM780 344q0 12 9 21.5t22 9.5q12 0 21.5 -9.5t9.5 -21.5q0 -13 -9.5 -23
t-21.5 -10q-13 0 -22 9.5t-9 23.5zM780 467q0 13 9 22t22 9q12 0 21.5 -9t9.5 -22q0 -12 -9.5 -21.5t-21.5 -9.5q-13 0 -22 9.5t-9 21.5zM780 592q0 12 9 21.5t22 9.5q12 0 21.5 -9.5t9.5 -21.5t-9.5 -21.5t-21.5 -9.5q-13 0 -22 9.5t-9 21.5zM780 717q0 12 9 21.5t22 9.5
q12 0 21.5 -9.5t9.5 -21.5q0 -13 -9.5 -23t-21.5 -10q-13 0 -22 9.5t-9 23.5zM780 840q0 14 9 23t22 9q12 0 21.5 -9.5t9.5 -22.5q0 -12 -9.5 -21.5t-21.5 -9.5q-13 0 -22 9.5t-9 21.5zM780 965q0 12 9 21t22 9q12 0 21.5 -9t9.5 -21t-9.5 -21.5t-21.5 -9.5q-13 0 -22 9.5
t-9 21.5zM780 1090q0 12 9 21t22 9q12 0 21.5 -9t9.5 -21q0 -13 -9.5 -22t-21.5 -9q-13 0 -22 8.5t-9 22.5zM780 1212q0 14 9 23.5t22 9.5q12 0 21.5 -10t9.5 -23q0 -12 -9.5 -21t-21.5 -9q-13 0 -22 9t-9 21zM780 1337q0 13 9 22t22 9q12 0 21.5 -9t9.5 -22q0 -12 -9.5 -21
t-21.5 -9q-13 0 -22 9t-9 21zM842 25v8q0 12 9 21t21 9q22 0 29 -20zM842 156q0 13 9 22.5t21 9.5q13 0 22 -9t9 -23q0 -12 -9 -21.5t-22 -9.5q-12 0 -21 9.5t-9 21.5zM842 281q0 13 9 21.5t21 8.5q14 0 22.5 -8.5t8.5 -21.5q0 -12 -9 -21.5t-22 -9.5q-12 0 -21 9.5t-9 21.5
zM842 406q0 12 9 21t21 9q13 0 22 -9t9 -21t-9 -21.5t-22 -9.5q-12 0 -21 9.5t-9 21.5zM842 530q0 12 9 21.5t21 9.5q13 0 22 -9.5t9 -21.5q0 -14 -9 -23t-22 -9q-12 0 -21 9.5t-9 22.5zM842 653q0 13 9 22t21 9q14 0 22.5 -9t8.5 -22q0 -12 -9 -21t-22 -9q-12 0 -21 9
t-9 21zM842 778q0 12 9 21.5t21 9.5q13 0 22 -9.5t9 -21.5t-9 -21t-22 -9q-12 0 -21 9t-9 21zM842 903q0 12 9 21.5t21 9.5q13 0 22 -9.5t9 -21.5q0 -13 -8.5 -22t-22.5 -9q-12 0 -21 9t-9 22zM842 1026q0 13 9 23t21 10q13 0 22 -9.5t9 -23.5q0 -12 -9 -21.5t-22 -9.5
q-12 0 -21 9.5t-9 21.5zM842 1151q0 12 9 21.5t21 9.5q13 0 22 -9.5t9 -21.5t-9 -21.5t-22 -9.5q-12 0 -21 9.5t-9 21.5zM842 1276q0 12 9 21.5t21 9.5q13 0 22 -9.5t9 -21.5q0 -14 -8.5 -22.5t-22.5 -8.5q-12 0 -21 9t-9 22zM842 1401q0 4 2 8l59 -18q-8 -23 -31 -23
q-12 0 -21 10t-9 23zM903 94q0 13 9.5 22t23.5 9q12 0 21.5 -9t9.5 -22q0 -12 -9.5 -21.5t-21.5 -9.5q-13 0 -23 9.5t-10 21.5zM903 219q0 12 10 21.5t23 9.5q12 0 21.5 -9.5t9.5 -21.5q0 -13 -9.5 -22t-21.5 -9q-14 0 -23.5 9t-9.5 22zM903 344q0 12 10 21.5t23 9.5
q12 0 21.5 -9.5t9.5 -21.5q0 -13 -9.5 -23t-21.5 -10q-14 0 -23.5 9.5t-9.5 23.5zM903 467q0 13 9.5 22t23.5 9q12 0 21.5 -9t9.5 -22q0 -12 -9.5 -21.5t-21.5 -9.5q-13 0 -23 9.5t-10 21.5zM903 592q0 12 10 21.5t23 9.5q12 0 21.5 -9.5t9.5 -21.5t-9.5 -21.5t-21.5 -9.5
q-13 0 -23 9.5t-10 21.5zM903 717q0 12 10 21.5t23 9.5q12 0 21.5 -9.5t9.5 -21.5q0 -13 -9.5 -23t-21.5 -10q-14 0 -23.5 10t-9.5 23zM903 840q0 13 9.5 22.5t23.5 9.5q12 0 21.5 -9.5t9.5 -22.5q0 -12 -9.5 -21.5t-21.5 -9.5q-13 0 -23 9.5t-10 21.5zM903 965q0 12 10 21
t23 9q12 0 21.5 -9t9.5 -21t-9.5 -21.5t-21.5 -9.5q-13 0 -23 9.5t-10 21.5zM903 1090q0 12 10 21t23 9q12 0 21.5 -9t9.5 -21q0 -13 -9.5 -22t-21.5 -9q-14 0 -23.5 9t-9.5 22zM903 1212q0 14 9.5 23.5t23.5 9.5q12 0 21.5 -10t9.5 -23q0 -12 -9.5 -21t-21.5 -9
q-13 0 -23 9t-10 21zM903 1337q0 13 9.5 22t23.5 9q12 0 21.5 -9t9.5 -22q0 -12 -9.5 -21t-21.5 -9q-13 0 -23 9t-10 21zM967 156q0 14 8.5 23t21.5 9q12 0 21.5 -9.5t9.5 -22.5q0 -12 -9.5 -21.5t-21.5 -9.5q-13 0 -21.5 9.5t-8.5 21.5zM967 281q0 13 8.5 21.5t21.5 8.5
q12 0 21.5 -8.5t9.5 -21.5q0 -12 -9.5 -21.5t-21.5 -9.5q-13 0 -21.5 9.5t-8.5 21.5zM967 406q0 12 8.5 21t21.5 9q12 0 21.5 -9t9.5 -21t-9.5 -21.5t-21.5 -9.5q-13 0 -21.5 9.5t-8.5 21.5zM967 530q0 12 8.5 21.5t21.5 9.5q12 0 21.5 -9.5t9.5 -21.5q0 -13 -9.5 -22.5
t-21.5 -9.5q-13 0 -21.5 9t-8.5 23zM967 653q0 14 8.5 22.5t21.5 8.5q12 0 21.5 -9t9.5 -22q0 -12 -9.5 -21t-21.5 -9q-13 0 -21.5 9t-8.5 21zM967 778q0 12 8.5 21.5t21.5 9.5q12 0 21.5 -9.5t9.5 -21.5t-9.5 -21t-21.5 -9q-13 0 -21.5 9t-8.5 21zM967 903q0 12 8.5 21.5
t21.5 9.5q12 0 21.5 -9.5t9.5 -21.5q0 -13 -9.5 -22t-21.5 -9q-13 0 -21.5 8.5t-8.5 22.5zM967 1026q0 14 8.5 23.5t21.5 9.5q12 0 21.5 -10t9.5 -23q0 -12 -9.5 -21.5t-21.5 -9.5q-13 0 -21.5 9.5t-8.5 21.5zM967 1151q0 12 8.5 21.5t21.5 9.5q12 0 21.5 -9.5t9.5 -21.5
t-9.5 -21.5t-21.5 -9.5q-13 0 -21.5 9.5t-8.5 21.5zM967 1276q0 12 8.5 21.5t21.5 9.5q12 0 21.5 -9.5t9.5 -21.5q0 -13 -9.5 -22t-21.5 -9q-13 0 -21.5 8.5t-8.5 22.5zM1028 219q0 12 9.5 21.5t21.5 9.5q13 0 22 -9.5t9 -21.5q0 -13 -9 -22t-22 -9q-12 0 -21.5 9t-9.5 22z
M1028 344q0 12 9.5 21.5t21.5 9.5q13 0 22 -9.5t9 -21.5q0 -14 -9 -23.5t-22 -9.5q-12 0 -21.5 10t-9.5 23zM1028 467q0 13 9.5 22t21.5 9q13 0 22 -9t9 -22q0 -12 -9 -21.5t-22 -9.5q-12 0 -21.5 9.5t-9.5 21.5zM1028 592q0 12 9.5 21.5t21.5 9.5q13 0 22 -9.5t9 -21.5
t-9 -21.5t-22 -9.5q-12 0 -21.5 9.5t-9.5 21.5zM1028 717q0 12 9.5 21.5t21.5 9.5q13 0 22 -9.5t9 -21.5q0 -14 -9 -23.5t-22 -9.5q-12 0 -21.5 10t-9.5 23zM1028 840q0 13 9.5 22.5t21.5 9.5q13 0 22 -9t9 -23q0 -12 -9 -21.5t-22 -9.5q-12 0 -21.5 9.5t-9.5 21.5z
M1028 965q0 12 9.5 21t21.5 9q13 0 22 -9t9 -21t-9 -21.5t-22 -9.5q-12 0 -21.5 9.5t-9.5 21.5zM1028 1090q0 12 9.5 21t21.5 9q13 0 22 -9t9 -21q0 -14 -9 -22.5t-22 -8.5q-12 0 -21.5 9t-9.5 22zM1028 1212q0 13 9.5 23t21.5 10q13 0 22 -9.5t9 -23.5q0 -12 -9 -21t-22 -9
q-12 0 -21.5 9t-9.5 21zM1030 106q8 19 29 19h2q-5 -3 -15.5 -9.5t-15.5 -9.5zM1030 1329q5 -4 16.5 -11t16.5 -11h-4q-23 0 -29 22zM1090 156q0 14 9 23t23 9q3 0 15 -4l-45 -37q0 2 -1 5t-1 4zM1090 281q0 13 9 21.5t23 8.5q12 0 21.5 -8.5t9.5 -21.5q0 -12 -9.5 -21.5
t-21.5 -9.5q-13 0 -22.5 9.5t-9.5 21.5zM1090 406q0 12 9.5 21t22.5 9q12 0 21.5 -9t9.5 -21t-9.5 -21.5t-21.5 -9.5q-13 0 -22.5 9.5t-9.5 21.5zM1090 530q0 12 9.5 21.5t22.5 9.5q12 0 21.5 -9.5t9.5 -21.5q0 -13 -9.5 -22.5t-21.5 -9.5q-14 0 -23 9t-9 23zM1090 653
q0 13 9 22t23 9q12 0 21.5 -9t9.5 -22q0 -12 -9.5 -21t-21.5 -9q-13 0 -22.5 9t-9.5 21zM1090 778q0 12 9.5 21.5t22.5 9.5q12 0 21.5 -9.5t9.5 -21.5t-9.5 -21t-21.5 -9q-13 0 -22.5 9t-9.5 21zM1090 903q0 12 9.5 21.5t22.5 9.5q12 0 21.5 -9.5t9.5 -21.5q0 -13 -9.5 -22
t-21.5 -9q-14 0 -23 9t-9 22zM1090 1026q0 14 9.5 23.5t22.5 9.5q12 0 21.5 -10t9.5 -23q0 -12 -9.5 -21.5t-21.5 -9.5q-13 0 -22.5 9.5t-9.5 21.5zM1090 1151q0 12 9.5 21.5t22.5 9.5q12 0 21.5 -9.5t9.5 -21.5t-9.5 -21.5t-21.5 -9.5q-13 0 -22.5 9.5t-9.5 21.5z
M1090 1276q0 2 1 5t1 5q15 -11 45 -37q-4 -4 -15 -4q-14 0 -23 9t-9 22zM1153 219q0 12 9.5 21.5t21.5 9.5q6 0 14 -4l-41 -43q-4 6 -4 16zM1153 344q0 12 9.5 21.5t21.5 9.5t21 -9.5t9 -21.5q0 -13 -9 -23t-21 -10t-21.5 10t-9.5 23zM1153 467q0 13 9.5 22t21.5 9t21 -9
t9 -22q0 -12 -9 -21.5t-21 -9.5t-21.5 9.5t-9.5 21.5zM1153 592q0 12 9.5 21.5t21.5 9.5t21 -9.5t9 -21.5t-9 -21.5t-21 -9.5t-21.5 9.5t-9.5 21.5zM1153 717q0 12 9.5 21.5t21.5 9.5t21 -9.5t9 -21.5q0 -13 -9 -23t-21 -10t-21.5 10t-9.5 23zM1153 840q0 13 9.5 22.5
t21.5 9.5t21 -9.5t9 -22.5q0 -12 -9 -21.5t-21 -9.5t-21.5 9.5t-9.5 21.5zM1153 965q0 12 9.5 21t21.5 9t21 -9t9 -21t-9 -21.5t-21 -9.5t-21.5 9.5t-9.5 21.5zM1153 1090q0 12 9.5 21t21.5 9t21 -9t9 -21q0 -13 -9 -22t-21 -9t-21.5 9t-9.5 22zM1153 1212q0 9 4 17
q24 -21 41 -43q-8 -4 -14 -4q-12 0 -21.5 9t-9.5 21zM1214 281q0 13 9.5 21.5t21.5 8.5h2q-25 -35 -30 -41q-3 6 -3 11zM1214 406q0 12 9.5 21t21.5 9q13 0 22 -9t9 -21t-9 -21.5t-22 -9.5q-12 0 -21.5 9.5t-9.5 21.5zM1214 530q0 12 9.5 21.5t21.5 9.5q13 0 22 -9.5
t9 -21.5q0 -14 -9 -23t-22 -9q-12 0 -21.5 9.5t-9.5 22.5zM1214 653q0 13 9.5 22t21.5 9q13 0 22 -9t9 -22q0 -12 -9 -21t-22 -9q-12 0 -21.5 9t-9.5 21zM1214 778q0 12 9.5 21.5t21.5 9.5q13 0 22 -9.5t9 -21.5t-9 -21t-22 -9q-12 0 -21.5 9t-9.5 21zM1214 903
q0 12 9.5 21.5t21.5 9.5q13 0 22 -9.5t9 -21.5q0 -13 -9 -22t-22 -9q-12 0 -21.5 9t-9.5 22zM1214 1026q0 13 9.5 23t21.5 10q13 0 22 -9.5t9 -23.5q0 -12 -9 -21.5t-22 -9.5q-12 0 -21.5 9.5t-9.5 21.5zM1214 1151q0 2 1.5 6t1.5 6q8 -9 32 -43h-4q-12 0 -21.5 9.5
t-9.5 21.5zM1276 467q0 13 9.5 22t23.5 9q15 0 26 -15l-18 -45q-2 -2 -8 -2q-13 0 -23 9.5t-10 21.5zM1276 592q0 12 10 21.5t23 9.5q12 0 21 -9.5t9 -21.5t-9 -21.5t-21 -9.5q-13 0 -23 9.5t-10 21.5zM1276 717q0 12 10 21.5t23 9.5q12 0 21 -9.5t9 -21.5q0 -13 -9 -23
t-21 -10q-13 0 -23 10t-10 23zM1276 840q0 13 9.5 22.5t23.5 9.5q12 0 21 -9.5t9 -22.5q0 -12 -9 -21.5t-21 -9.5q-13 0 -23 9.5t-10 21.5zM1276 965q0 12 10 21t23 9q6 0 10 -2q11 -26 16 -43q-10 -16 -26 -16q-13 0 -23 9.5t-10 21.5zM1339 530q0 20 17 27l-13 -45
q-4 12 -4 18zM1339 653q0 13 9.5 22t21.5 9h4q-1 -10 -3 -30.5t-3 -30.5q-12 2 -20.5 10t-8.5 20zM1339 778q0 12 8.5 21.5t20.5 9.5l6 -61h-4q-12 0 -21.5 9t-9.5 21zM1339 903q0 10 7 17q8 -26 10 -46q-17 7 -17 29z" />
    <glyph glyph-name="E.ss01" horiz-adv-x="1093" 
d="M168 0q-10 0 -17.5 7t-7.5 18v411q0 126 90 215.5t216 89.5h471q10 0 17 -6.5t7 -17.5t-7 -18t-17 -7h-471q-106 0 -181 -75t-75 -181v-387h794q11 0 18 -7t7 -17q0 -11 -7 -18t-18 -7h-819zM143 801v608q0 11 7.5 18t17.5 7h819q11 0 18 -7t7 -18t-7 -18t-18 -7h-794
v-583q0 -9 -7.5 -17t-17.5 -8t-17.5 8t-7.5 17z" />
    <glyph glyph-name="H.ss01" horiz-adv-x="1323" 
d="M143 770q0 -9 8 -17t17 -8q10 0 18.5 8t8.5 17v641q0 9 -8.5 17t-18.5 8q-9 0 -17 -8t-8 -17v-641zM143 25v409q0 129 90 218t218 89h421q107 0 181.5 75t74.5 181v414q0 9 8.5 17t18.5 8q9 0 17 -8t8 -17v-1386q0 -9 -8 -17t-17 -8q-10 0 -18.5 8t-8.5 17v809
q-40 -65 -109 -104.5t-147 -39.5h-421q-107 0 -181.5 -74.5t-74.5 -181.5v-409q0 -9 -8.5 -17t-18.5 -8q-9 0 -17 8t-8 17z" />
    <glyph glyph-name="J.ss01" horiz-adv-x="1282" 
d="M614 0q-200 0 -356.5 128.5t-196.5 324.5q-3 10 3 18.5t16 11.5q11 2 20.5 -4t10.5 -16q37 -179 179.5 -295.5t323.5 -116.5q140 0 258.5 69t187 187.5t68.5 257.5v842q0 11 8 19t19 8q10 0 17.5 -8t7.5 -19v-842q0 -153 -75.5 -283t-206 -206t-284.5 -76z" />
    <glyph glyph-name="K.ss01" horiz-adv-x="1130" 
d="M1032 0q-11 0 -16 8l-512 496q-88 89 -88 213t88 213l512 497q6 6 17 6t18 -6q7 -7 7 -17.5t-7 -16.5l-510 -496q-73 -75 -73 -179t73 -179l510 -496q7 -7 7 -18t-7 -19q-9 -6 -19 -6zM143 25v1384q0 10 8 17.5t17 7.5q11 0 19 -7.5t8 -17.5v-1384q0 -10 -8 -17.5
t-19 -7.5q-9 0 -17 7.5t-8 17.5z" />
    </font>
</defs>
</svg>
