<?xml version="1.0" standalone="no"?> <!DOCTYPE svg PUBLIC "-//W3C//DTD SVG 1.0//EN" "http://www.w3.org/TR/2001/REC-SVG-20010904/DTD/svg10.dtd" > <svg xmlns="http://www.w3.org/2000/svg" width="100%" height="100%">
<defs >
<font horiz-adv-x="582" ><font-face
    font-family="Baufra"
    units-per-em="1000"
    panose-1="0 0 6 0 0 0 0 0 0 0"
    ascent="1074"
    descent="-274"
    alphabetic="0" />
<missing-glyph horiz-adv-x="440" d="M361 -180H82V700H361V-180ZM148 641V612H205V579H147V550H293V579H235V612H293V641H148ZM147 528V436H293V466H235V528H147ZM205 466H176V498H205V466ZM147 412V383H205V351H147V322H235V383H293V412H147ZM264 359V301H147V271H293V359H264ZM205
252V203H235V223H264V182H176V252H147V153H293V252H205ZM147 100V0H293V100H147ZM264 29H176V71H264V29ZM147 -20V-49H209L147 -90V-119H293V-90H203L265 -49H293V-20H147Z" />
<glyph unicode=" " glyph-name="space" horiz-adv-x="395" />
<glyph unicode="!" glyph-name="exclam" horiz-adv-x="181" d="M121 159H61V701H121V159ZM74 -10T62 2T50 31Q50 48 62 59T91 71Q108 71 119 60T131 31Q131 14 120 2T91 -10Q74 -10 62 2Z" />
<glyph unicode="&quot;" glyph-name="quotedbl" horiz-adv-x="302" d="M109 709T121 697T133 668Q133 644 116 617T53 590Q76 608 86 629Q71 631 61 642T51 668Q51 685 63 697T92 709Q109 709 121 697ZM228 709T240 697T252 668Q252 644 235 617T172 590Q195 606
205 629Q191 631 181 642T171 668Q171 685 183 697T212 709Q228 709 240 697Z" />
<glyph unicode="#" glyph-name="numbersign" horiz-adv-x="673" d="M448 269H581L569 211H435L390 0H330L375 211H240L195 0H135L180 211H50L63 269H192L221 407H92L105 465H234L284 700H344L294 465H428L479 700H539L489 465H623L610 407H476L448 269ZM281 407L252
269H387L416 407H281Z" />
<glyph unicode="$" glyph-name="dollar" horiz-adv-x="526" d="M278 706Q321 703 360 690T425 652L387 609Q369 625 339 634T278 645V388L294 383Q384 359 429 309T474 177Q474 97 419 48T278 -9V-55H240V-8Q190 -5 139 15T56 72L95 116Q119 87 160 72T240 52V341L226
345Q148 369 104 412T60 519Q60 580 86 620T154 681T240 706V750H278V706ZM195 635T160 607T124 521Q124 480 152 451T240 402V643Q195 635 160 607ZM278 53Q337 59 375 93T413 176Q413 235 382 270T278 328V53Z" />
<glyph unicode="%" glyph-name="percent" horiz-adv-x="714" d="M231 709T262 691T311 641T330 573Q330 536 312 505T262 456T194 437Q157 437 126 455T77 505T58 573Q58 610 76 641T126 690T194 709Q231 709 262 691ZM180 0H123L531 700H588L180 0ZM157 658T133
635T109 573Q109 535 133 511T194 486Q231 486 255 510T280 573Q280 610 256 634T194 658Q157 658 133 635ZM557 263T588 245T637 195T656 127Q656 90 638 59T588 10T520 -9Q483 -9 452 9T403 59T384 127Q384 164 402 195T452 244T520 263Q557 263 588 245ZM482
213T458 189T434 127Q434 90 458 66T520 41Q558 41 582 65T606 127Q606 165 582 189T520 213Q482 213 458 189Z" />
<glyph unicode="&amp;" glyph-name="ampersand" horiz-adv-x="705" d="M508 90Q471 45 415 19T289 -8Q218 -8 164 21T81 96T52 192Q52 273 97 323T227 416Q176 476 159 514T142 587Q142 642 188 675T310 709Q381 709 428 673T475 575Q475 533 445 492T323 404L502
193Q513 223 516 250H581Q573 191 546 141L665 0H584L508 90ZM203 558T219 527T280 444Q340 475 370 498T408 539T416 575Q416 610 387 631T312 653Q263 653 233 633T203 583Q203 558 219 527ZM216 345T185 323T133 269T113 193Q113 155 135 122T197 70T289 50Q351
50 397 73T470 135L269 373Q216 345 185 323Z" />
<glyph unicode="&apos;" glyph-name="quotesingle" horiz-adv-x="182" d="M109 708T121 696T133 668Q133 643 116 617T53 590Q76 607 86 628Q71 630 61 641T51 668Q51 685 63 696T92 708Q109 708 121 696Z" />
<glyph unicode="(" glyph-name="parenleft" horiz-adv-x="362" d="M312 705Q263 682 217 623T141 480T111 299Q111 202 140 119T216 -23T313 -107L288 -140Q231 -119 176 -57T86 98T50 299Q50 407 85 501T176 657T288 737L312 705Z" />
<glyph unicode=")" glyph-name="parenright" horiz-adv-x="362" d="M131 719T186 657T277 501T313 299Q313 191 278 99T187 -56T75 -140L50 -107Q100 -81 146 -23T222 118T252 299Q252 395 223 479T147 623T51 705L75 737Q131 719 186 657Z" />
<glyph unicode="*" glyph-name="asterisk" horiz-adv-x="464" d="M371 401L325 363L235 479L145 363L98 401L186 516L50 574L78 627L202 577V716H262V576L387 627L415 574L281 518L371 401Z" />
<glyph unicode="+" glyph-name="plus" horiz-adv-x="538" d="M299 338H488V279H299V90H239V279H50V338H239V527H299V338Z" />
<glyph unicode="," glyph-name="comma" horiz-adv-x="182" d="M109 71T121 59T133 30Q133 6 116 -21T53 -48Q77 -29 86 -10Q71 -8 61 3T51 30Q51 47 63 59T92 71Q109 71 121 59Z" />
<glyph unicode="-" glyph-name="hyphen" horiz-adv-x="384" d="M334 252H50V311H334V252Z" />
<glyph unicode="." glyph-name="period" horiz-adv-x="181" d="M74 -10T62 2T50 31Q50 48 62 59T91 71Q108 71 119 60T131 31Q131 14 120 2T91 -10Q74 -10 62 2Z" />
<glyph unicode="/" glyph-name="slash" horiz-adv-x="478" d="M428 700L113 0H50L365 700H428Z" />
<glyph unicode="0" glyph-name="zero" horiz-adv-x="675" d="M409 669T468 626T561 504T595 327Q595 235 561 159T468 38T336 -6Q263 -6 205 38T113 158T80 327Q80 426 113 504T204 625T336 669Q409 669 468 626ZM278 608T234 573T166 474T142 327Q142 250 166
188T234 91T336 55Q393 55 438 90T508 187T533 327Q533 410 508 474T439 573T336 608Q278 608 234 573Z" />
<glyph unicode="1" glyph-name="one" horiz-adv-x="249" d="M156 660V0H94V660H156Z" />
<glyph unicode="2" glyph-name="two" horiz-adv-x="557" d="M373 670T427 620Q454 596 469 563T484 489Q484 447 465 417T412 367T327 323Q262 294 220 264T150 184T120 59H484V0H55V51Q57 143 90 204T174 303T297 372Q342 391 366 404T407 438T424 489Q424 544
386 577Q346 612 283 612Q186 612 116 551L74 593Q117 630 170 650T280 670Q373 670 427 620Z" />
<glyph unicode="3" glyph-name="three" horiz-adv-x="548" d="M360 671T417 625T474 498Q474 438 441 398T351 343Q410 329 446 284T482 171Q482 87 424 39T273 -9Q213 -9 157 11T55 67L101 111Q134 84 177 69T267 53Q335 53 377 87T419 181Q419 240 376 276T254
312H178V369H245Q324 369 367 401T411 491Q411 546 371 578T268 610Q220 610 177 595T101 551L56 595Q102 632 157 651T274 671Q360 671 417 625Z" />
<glyph unicode="4" glyph-name="four" horiz-adv-x="541" d="M434 179V0H374V179H45L46 242L370 660H434V238H484V179H434ZM112 238H374V576L112 238Z" />
<glyph unicode="5" glyph-name="five" horiz-adv-x="549" d="M59 65Q102 31 157 11T269 -9Q328 -9 375 17T450 89T478 189Q478 245 457 295T389 376T270 408H150V602H447V660H91V348H261Q341 348 379 305T418 191Q418 130 376 91T269 51Q183 51 101 109L59 65Z" />
<glyph unicode="6" glyph-name="six" horiz-adv-x="556" d="M438 610Q322 610 237 550Q189 516 159 465T121 350Q143 393 184 419T282 445Q345 445 393 414T469 332T496 218Q496 159 471 108T397 24T277 -8Q206 -8 155 31T77 136T50 284Q50 382 90 462T202 595Q251
631 311 650T438 669V610ZM226 386T190 363T135 302T116 219Q125 146 168 99T277 51Q327 51 363 74T417 136T435 218Q435 262 417 300T363 362T277 386Q226 386 190 363Z" />
<glyph unicode="7" glyph-name="seven" horiz-adv-x="494" d="M156 0H90L359 601H50V660H452L156 0Z" />
<glyph unicode="8" glyph-name="eight" horiz-adv-x="566" d="M326 671T372 656T451 603T484 502Q484 443 456 403T374 344Q432 327 466 281T500 176Q500 116 470 74T391 12T282 -9Q224 -9 175 11T96 74T66 176Q66 235 101 281T194 344Q139 364 111 404T82 502Q82
563 114 600T193 654T283 671Q326 671 372 656ZM231 613T188 586T145 497Q145 444 182 414T283 381Q346 382 384 413T422 497Q422 551 385 582T283 613Q231 613 188 586ZM211 305T172 270T132 179Q132 109 178 79T283 49Q343 49 388 79T434 179Q434 234 395 269T285
306Q211 305 172 270Z" />
<glyph unicode="9" glyph-name="nine" horiz-adv-x="583" d="M361 669T412 630T490 525T517 377Q517 279 477 199T365 66Q316 30 256 11T130 -8V51Q234 51 318 104Q370 138 403 191T446 311Q425 268 384 242T286 216Q223 216 174 246T98 328T71 443Q71 502 96
553T171 637T291 669Q361 669 412 630ZM241 610T205 587T151 525T132 443Q132 399 150 361T205 299T291 275Q342 275 378 298T433 359T452 442Q443 515 400 562T291 610Q241 610 205 587Z" />
<glyph unicode=":" glyph-name="colon" horiz-adv-x="181" d="M108 343T119 332T131 303Q131 286 120 274T91 262Q74 262 62 274T50 303Q50 320 62 331T91 343Q108 343 119 332ZM108 72T119 60T131 31Q131 14 120 3T91 -9Q74 -9 62 2T50 31Q50 48 62 60T91 72Q108
72 119 60Z" />
<glyph unicode=";" glyph-name="semicolon" horiz-adv-x="182" d="M108 342T120 330T132 301Q132 284 120 273T91 261Q74 261 63 272T51 301Q51 318 62 330T91 342Q108 342 120 330ZM109 71T121 59T133 31Q133 7 116 -20T53 -47Q76 -28 86 -10Q71 -8 61 3T51 31Q51
48 63 59T92 71Q109 71 121 59Z" />
<glyph unicode="&lt;" glyph-name="less" horiz-adv-x="449" d="M386 482L143 335L386 188V119L63 315V356L386 552V482Z" />
<glyph unicode="=" glyph-name="equal" horiz-adv-x="538" d="M488 366H50V425H488V366ZM488 205H50V264H488V205Z" />
<glyph unicode="&gt;" glyph-name="greater" horiz-adv-x="424" d="M374 356V315L50 119V188L293 335L50 482V552L374 356Z" />
<glyph unicode="?" glyph-name="question" horiz-adv-x="510" d="M340 709T395 664Q426 640 443 605T460 528Q460 469 428 436T333 374Q297 358 277 344T245 304T232 234H169Q169 290 186 325T231 381T305 421Q352 442 376 465T400 530Q400 586 356 620Q339 634
313 642T258 650Q211 650 169 634T92 589L50 631Q94 669 148 689T259 709Q340 709 395 664ZM219 71T230 60T242 31Q242 14 231 2T202 -10Q185 -10 173 2T161 31Q161 48 173 59T202 71Q219 71 230 60Z" />
<glyph unicode="@" glyph-name="at" horiz-adv-x="875" d="M498 -125T426 -125Q224 -125 147 -20T69 265Q69 382 99 466T211 600T437 651Q591 651 672 601T779 469T806 264V112Q806 59 770 27T676 -6Q620 -6 583 23T540 99Q516 82 485 73T424 63Q367 63 324 89T256
162T232 272Q232 369 284 424T424 480Q459 480 486 473T540 447V474H592V119Q593 83 614 65T675 47Q712 47 730 67T748 124V264Q747 369 725 438T635 549T437 591Q313 591 245 549T152 435T127 265Q127 166 151 94T242 -21T428 -65Q466 -65 484 -63L538 -118Q498
-125 426 -125ZM517 408T488 415T430 422Q364 422 328 383T291 272Q291 201 328 161T430 121Q457 121 487 130T534 154V395Q517 408 488 415Z" />
<glyph unicode="A" glyph-name="A" horiz-adv-x="753" d="M710 0H644L549 220H205L109 0H44L342 700H412L710 0ZM230 282H524L377 627L230 282Z" />
<glyph unicode="B" glyph-name="B" horiz-adv-x="644" d="M412 700T458 678T531 614T558 518Q558 466 532 427T461 365Q520 346 555 300T591 191Q591 136 564 93T489 25T386 0H106V700H356Q412 700 458 678ZM170 640V389H344Q410 389 451 422T493 514Q493 573
451 606T344 640H170ZM170 328V61H376Q440 61 483 98T526 194Q526 254 483 291T376 328H170Z" />
<glyph unicode="C" glyph-name="C" horiz-adv-x="730" d="M515 709T572 689T677 630L634 587Q596 617 550 632T453 648Q371 648 303 608T195 500T155 350Q155 269 195 201T303 92T453 52Q503 52 549 67T633 112L677 70Q578 -9 453 -9Q356 -9 273 39T142 169T93
350Q93 448 141 530T273 661T453 709Q515 709 572 689Z" />
<glyph unicode="D" glyph-name="D" horiz-adv-x="804" d="M449 700T532 653T663 526T712 350Q712 255 664 175T532 47T352 0H106V700H352Q449 700 532 653ZM168 640V60H352Q433 60 501 99T609 205T649 350Q649 428 609 495T501 601T352 640H168Z" />
<glyph unicode="E" glyph-name="E" horiz-adv-x="579" d="M522 642H168V393H518V335H168V58H525V0H106V700H522V642Z" />
<glyph unicode="F" glyph-name="F" horiz-adv-x="573" d="M520 642H168V376H513V317H168V0H106V700H520V642Z" />
<glyph unicode="G" glyph-name="G" horiz-adv-x="763" d="M502 709T559 689T664 630L621 587Q583 617 537 632T440 648Q359 648 291 608T182 500T142 350Q142 269 182 201T290 92T440 52Q527 52 601 100V334H663V69Q617 32 560 12T440 -9Q343 -9 260 39T129 169T80
350Q80 448 128 530T260 661T440 709Q502 709 559 689Z" />
<glyph unicode="H" glyph-name="H" horiz-adv-x="726" d="M619 700V0H557V336H168V0H106V700H168V396H557V700H619Z" />
<glyph unicode="I" glyph-name="I" horiz-adv-x="275" d="M168 700V0H106V700H168Z" />
<glyph unicode="J" glyph-name="J" horiz-adv-x="471" d="M366 287Q366 193 328 127T222 26T68 -9H44V53H69Q137 52 189 78T272 158T302 287V700H366V287Z" />
<glyph unicode="K" glyph-name="K" horiz-adv-x="637" d="M317 431L593 0H520L275 383L169 261V0H106V700H169V346L478 700H552L317 431Z" />
<glyph unicode="L" glyph-name="L" horiz-adv-x="553" d="M168 59H509V0H106V700H168V59Z" />
<glyph unicode="M" glyph-name="M" horiz-adv-x="904" d="M798 0H736V614L452 258L168 614V0H106V700H176L452 349L728 700H798V0Z" />
<glyph unicode="N" glyph-name="N" horiz-adv-x="745" d="M576 100V700H638V0H569L168 601V0H106V700H176L576 100Z" />
<glyph unicode="O" glyph-name="O" horiz-adv-x="880" d="M537 709T620 661T751 531T800 350Q800 252 752 170T620 39T440 -9Q343 -9 260 39T129 169T80 350Q80 448 128 530T260 661T440 709Q537 709 620 661ZM359 648T291 608T182 500T142 350Q142 269 182 201T290
92T440 52Q521 52 589 92T698 200T738 350Q738 431 698 499T590 608T440 648Q359 648 291 608Z" />
<glyph unicode="P" glyph-name="P" horiz-adv-x="633" d="M401 700T450 675T527 603T554 494Q554 401 496 345T338 289H168V0H106L107 700H337Q401 700 450 675ZM169 639V349L335 350Q405 350 448 389T492 495Q492 560 448 599T335 639H169Z" />
<glyph unicode="Q" glyph-name="Q" horiz-adv-x="881" d="M800 285T778 227T716 120L800 36L757 -8L672 76Q625 36 565 14T440 -9Q343 -9 260 39T129 169T80 350Q80 448 128 530T260 661T440 709Q537 709 620 661T751 531T800 350Q800 285 778 227ZM142 269T182
201T290 92T440 52Q521 52 589 92T698 200T738 350Q738 431 698 499T590 608T440 648Q359 648 291 608T182 500T142 350Q142 269 182 201Z" />
<glyph unicode="R" glyph-name="R" horiz-adv-x="660" d="M405 700T453 676T527 608T554 505Q554 426 506 375T378 313L580 0H508L308 310H168V0H106V700H342Q405 700 453 676ZM168 640V370H341Q407 370 449 407T491 505Q491 565 448 602T341 640H168Z" />
<glyph unicode="S" glyph-name="S" horiz-adv-x="522" d="M199 -9T145 11T54 72L93 116Q123 83 166 67T256 50Q297 50 332 66T389 112T411 181Q411 237 382 270T287 325L243 340Q150 371 104 414T58 526Q58 585 86 626T162 689T262 710Q363 710 423 652L385 609Q362
629 330 639T262 650Q205 650 164 618T122 527Q122 481 159 449T264 394L314 377Q392 350 432 303T472 181Q472 123 442 80T363 14T257 -9Q199 -9 145 11Z" />
<glyph unicode="T" glyph-name="T" horiz-adv-x="577" d="M534 642H320V0H258V641H44V700H534V642Z" />
<glyph unicode="U" glyph-name="U" horiz-adv-x="753" d="M655 700V258Q655 187 619 126T520 28T380 -9Q303 -9 241 27T142 125T106 258V700H170V264Q170 206 198 158T274 81T380 52Q438 52 486 80T563 157T591 264V700H655Z" />
<glyph unicode="V" glyph-name="V" horiz-adv-x="746" d="M409 0H338L44 700H108L373 80L638 700H703L409 0Z" />
<glyph unicode="W" glyph-name="W" horiz-adv-x="1066" d="M788 0H719L533 603L347 0H278L44 700H108L313 98L497 700H569L753 98L958 700H1023L788 0Z" />
<glyph unicode="X" glyph-name="X" horiz-adv-x="646" d="M323 320L113 0H44L284 366L64 700H134L324 410L513 700H582L364 363L603 0H533L323 320Z" />
<glyph unicode="Y" glyph-name="Y" horiz-adv-x="668" d="M365 294V0H303V294L44 700H112L334 353L557 700H625L365 294Z" />
<glyph unicode="Z" glyph-name="Z" horiz-adv-x="576" d="M519 641L124 58H522V0H53V59L449 642H66V700H519V641Z" />
<glyph unicode="[" glyph-name="bracketleft" horiz-adv-x="226" d="M111 -81H176V-140H50V750H176V691H111V-81Z" />
<glyph unicode="\" glyph-name="backslash" horiz-adv-x="478" d="M428 0H365L50 700H113L428 0Z" />
<glyph unicode="]" glyph-name="bracketright" horiz-adv-x="226" d="M176 -140H50V-81H115V691H50V750H176V-140Z" />
<glyph unicode="^" glyph-name="asciicircum" horiz-adv-x="532" d="M482 341H413L266 583L119 341H50L246 664H286L482 341Z" />
<glyph unicode="_" glyph-name="underscore" horiz-adv-x="538" d="M488 -124H50V-65H488V-124Z" />
<glyph unicode="`" glyph-name="grave" horiz-adv-x="250" d="M132 700L200 575H142L50 700H132Z" />
<glyph unicode="a" glyph-name="a" horiz-adv-x="554" d="M378 509T433 452T488 293V0H433V53Q407 26 357 9T258 -9Q166 -9 115 37T63 169Q63 248 116 294T270 341Q353 341 427 302Q426 375 385 413T269 452Q165 452 110 410L85 457Q154 509 276 509Q378 509 433
452ZM196 284T160 253T124 168Q124 112 159 82T264 52Q302 52 349 67T427 106V247Q394 266 352 275T270 284Q196 284 160 253Z" />
<glyph unicode="b" glyph-name="b" horiz-adv-x="592" d="M147 465Q180 487 213 497T289 508Q400 508 460 444T520 250Q520 117 461 55T289 -8Q248 -8 209 5T142 42V0H86V700H147V465ZM244 450T209 440T147 410V97Q170 74 207 62T283 49Q376 49 417 98T458 247Q458
450 283 450Q244 450 209 440Z" />
<glyph unicode="c" glyph-name="c" horiz-adv-x="560" d="M376 509T417 494T492 452L449 410Q398 449 331 449Q277 449 232 423T160 351T133 251Q133 196 159 151T231 79T331 52Q398 52 449 91L491 48Q458 22 417 8T331 -7Q261 -7 202 27T108 121T73 251Q73 321
108 380T202 474T331 509Q376 509 417 494Z" />
<glyph unicode="d" glyph-name="d" horiz-adv-x="592" d="M506 0H451V42Q423 19 384 6T303 -8Q190 -8 132 53T73 247Q73 378 132 443T304 508Q346 508 379 498T446 465V700H506V0ZM135 450T135 247Q135 147 175 98T310 49Q347 49 384 62T446 97V410Q420 430 384
440T309 450Q135 450 135 247Z" />
<glyph unicode="e" glyph-name="e" horiz-adv-x="630" d="M400 508T453 478T534 404T563 316Q563 279 540 255T472 231H141Q141 180 168 139T240 74T337 50Q379 50 415 60T481 97L524 54Q458 -8 339 -8Q269 -8 208 24T110 116T73 250Q73 320 107 379T201 473T331
508Q400 508 453 478ZM280 451T238 429T171 370T142 288H449Q472 288 484 300T496 332Q496 364 472 391T410 435T331 451Q280 451 238 429Z" />
<glyph unicode="f" glyph-name="f" horiz-adv-x="372" d="M322 654H268Q238 654 216 638T193 592V500H312V442H193V0H132V442H50V500H132V592Q132 645 170 676T268 708H322V654Z" />
<glyph unicode="g" glyph-name="g" horiz-adv-x="592" d="M237 -188T194 -174T108 -125L116 -76Q158 -108 199 -121T294 -134Q373 -134 408 -96T446 36Q414 12 380 2T304 -8Q192 -8 133 57T73 253Q73 385 131 446T303 508Q344 508 383 495T451 458V500H506V57Q506
-73 456 -130T294 -188Q237 -188 194 -174ZM346 50T383 61T446 92V403Q422 425 385 438T310 451Q216 451 176 402T135 253Q135 50 309 50Q346 50 383 61Z" />
<glyph unicode="h" glyph-name="h" horiz-adv-x="612" d="M469 242Q469 350 431 400T300 451Q263 451 224 437T153 402V0H91V700H151V454Q184 478 226 493T312 508Q425 507 478 441T531 241V0H469V242Z" />
<glyph unicode="i" glyph-name="i" horiz-adv-x="237" d="M106 578T95 589T83 616Q83 632 94 643T122 655Q138 655 149 644T160 616Q160 600 149 589T122 578Q106 578 95 589ZM152 500V0H93V500H152Z" />
<glyph unicode="j" glyph-name="j" horiz-adv-x="347" d="M239 655T250 644T261 616Q261 600 250 589T223 578Q207 578 196 589T184 616Q184 633 195 644T223 655Q239 655 250 644ZM252 -28Q252 -95 216 -135T114 -174H90V-119H114Q153 -119 173 -95T193 -28V500H252V-28Z"
/>
<glyph unicode="k" glyph-name="k" horiz-adv-x="557" d="M152 184V0H91V700H152V271L384 500H464L278 311L511 0H439L236 266L152 184Z" />
<glyph unicode="l" glyph-name="l" horiz-adv-x="232" d="M150 700V0H91V700H150Z" />
<glyph unicode="m" glyph-name="m" horiz-adv-x="985" d="M798 508T850 442T903 241V0H843V242Q843 350 805 400T674 451Q635 451 588 431T504 384Q526 330 526 241V0H464V242Q464 350 426 400T295 451Q258 450 218 437T148 402V0H86V500H146V454Q178 478 219
493T304 508Q431 508 485 424Q525 460 579 484T686 508Q798 508 850 442Z" />
<glyph unicode="n" glyph-name="n" horiz-adv-x="607" d="M464 242Q464 349 426 400T296 451Q259 451 219 437T148 402V0H86V500H146V454Q178 478 220 493T306 508Q423 508 474 440T526 241V0H464V242Z" />
<glyph unicode="o" glyph-name="o" horiz-adv-x="662" d="M401 508T460 474T555 380T590 250Q590 179 555 120T461 27T331 -8Q261 -8 202 26T108 120T73 250Q73 320 108 379T202 473T331 508Q401 508 460 474ZM277 448T232 422T161 350T134 250Q134 196 160 151T232
79T331 52Q385 52 430 78T502 150T529 250Q529 304 503 349T431 421T331 448Q277 448 232 422Z" />
<glyph unicode="p" glyph-name="p" horiz-adv-x="592" d="M402 508T461 446T520 250Q520 121 460 57T289 -8Q249 -7 215 3T147 37V-180H86V500H142V458Q169 481 208 494T289 508Q402 508 461 446ZM245 451T208 439T147 403V92Q171 73 208 62T283 50Q458 50 458
253Q458 353 417 402T283 451Q245 451 208 439Z" />
<glyph unicode="q" glyph-name="q" horiz-adv-x="592" d="M344 508T383 495T451 458V500H506V-180H446V37Q412 14 378 4T304 -8Q193 -8 133 56T73 250Q73 383 131 445T303 508Q344 508 383 495ZM216 451T176 402T135 253Q135 50 309 50Q346 50 383 61T446 92V403Q422
425 385 438T310 451Q216 451 176 402Z" />
<glyph unicode="r" glyph-name="r" horiz-adv-x="487" d="M387 507T442 469L398 425Q358 452 309 452Q266 452 225 428T148 362V0H86V500H146V417Q180 458 227 482T325 507Q387 507 442 469Z" />
<glyph unicode="s" glyph-name="s" horiz-adv-x="410" d="M241 509T271 499T334 465L294 425Q249 450 210 449Q175 449 149 431T122 380Q122 348 141 327T209 293Q291 269 325 232T360 130Q360 69 315 30T202 -9Q123 -9 50 59L89 98Q117 75 147 63T202 51Q244
51 272 74T300 133Q300 171 277 195T198 237Q129 255 95 288T61 377Q61 416 81 446T133 492T204 509Q241 509 271 499Z" />
<glyph unicode="t" glyph-name="t" horiz-adv-x="363" d="M183 500H313V442H183V109Q183 80 205 63T258 46H313V-8H258Q199 -8 161 24T122 109V442H50V500H122V627H183V500Z" />
<glyph unicode="u" glyph-name="u" horiz-adv-x="616" d="M530 0H470V62Q433 28 387 10T290 -8Q182 -8 132 59T81 259V500H143V259Q143 150 179 100T306 49Q347 49 389 66T469 115V500H530V0Z" />
<glyph unicode="v" glyph-name="v" horiz-adv-x="558" d="M310 0H248L46 500H105L279 73L452 500H511L310 0Z" />
<glyph unicode="w" glyph-name="w" horiz-adv-x="830" d="M552 0L415 412L278 0H215L46 500H105L246 88L384 500H447L585 88L725 500H785L615 0H552Z" />
<glyph unicode="x" glyph-name="x" horiz-adv-x="501" d="M454 0H382L248 202L118 0H46L213 252L46 500H119L254 296L382 500H454L289 246L454 0Z" />
<glyph unicode="y" glyph-name="y" horiz-adv-x="580" d="M508 41Q508 -80 454 -134T283 -188Q226 -188 182 -174T97 -128L106 -79Q147 -109 188 -121T283 -134Q370 -134 409 -98T449 27V46Q417 22 376 7T291 -8Q177 -8 123 57T69 258V500H130V258Q130 150 168
100T299 50Q336 50 375 63T446 97V500H508V41Z" />
<glyph unicode="z" glyph-name="z" horiz-adv-x="445" d="M396 0H50V53L316 442H63V500H392V445L126 58H396V0Z" />
<glyph unicode="{" glyph-name="braceleft" horiz-adv-x="360" d="M310 692H267Q249 692 237 680T224 646V419Q224 380 202 350T144 305Q180 291 202 261T224 191V-36Q224 -57 236 -69T267 -82H310V-140H234Q205 -140 184 -119T163 -64V173Q163 215 132 244T55
275H50V335H55Q101 336 132 365T163 437V674Q163 707 184 728T234 750H310V692Z" />
<glyph unicode="|" glyph-name="bar" horiz-adv-x="161" d="M111 -60H50V700H111V-60Z" />
<glyph unicode="}" glyph-name="braceright" horiz-adv-x="360" d="M155 750T176 729T197 674V437Q197 395 228 365T305 335H310V275H305Q259 275 228 245T197 173V-64Q197 -97 176 -118T126 -140H50V-82H93Q111 -82 123 -70T136 -36V191Q136 230 158 260T216
305Q180 319 158 349T136 419V646Q136 667 124 679T93 692H50V750H126Q155 750 176 729Z" />
<glyph unicode="~" glyph-name="asciitilde" horiz-adv-x="466" d="M382 239Q360 216 327 216Q295 216 257 239L196 275Q164 293 140 293Q116 293 99 276L50 227V294L85 329Q107 351 139 351Q172 351 210 328L271 292Q303 274 326 274Q350 274 368 292L417 340V273L382
239Z" />
<glyph unicode="&#xa1;" glyph-name="exclamdown" horiz-adv-x="181" d="M108 548T119 536T131 507Q131 491 120 479T91 467Q74 467 62 478T50 507Q50 524 62 536T91 548Q108 548 119 536ZM60 -163V379H121V-163H60Z" />
<glyph unicode="&#xa2;" glyph-name="cent" horiz-adv-x="555" d="M331 508Q369 507 411 494T489 452L446 409Q398 446 331 448V53Q395 53 444 91L488 48Q423 -3 331 -7V-98H292V-5Q230 4 179 40T99 131T69 251Q69 315 98 370T179 461T292 506V601H331V508ZM222
433T176 379T130 251Q130 177 176 123T292 56V444Q222 433 176 379Z" />
<glyph unicode="&#xa3;" glyph-name="sterling" horiz-adv-x="625" d="M391 707T445 688T545 632L505 593Q431 647 342 647Q274 647 231 616T187 513Q187 488 190 475L205 381H403V322H215L226 255Q234 210 234 177Q234 85 179 54H576V-6H52V54Q113 58 141 88T169
178Q169 203 162 250L150 323H52V381H140L123 485Q119 508 119 531Q119 624 182 665T331 707Q391 707 445 688Z" />
<glyph unicode="&#xa5;" glyph-name="yen" horiz-adv-x="644" d="M425 430H550V371H384L354 321V301H550V242H352V0H291V242H95V301H290V321L260 371H95V430H219L35 700H104L322 378L541 700H610L425 430Z" />
<glyph unicode="&#xa6;" glyph-name="brokenbar" horiz-adv-x="161" d="M111 372H50V700H111V372ZM111 -60H50V268H111V-60Z" />
<glyph unicode="&#xa7;" glyph-name="section" horiz-adv-x="454" d="M365 534Q343 548 303 556T224 564Q173 564 146 547T119 499Q119 452 188 427L281 393Q341 372 372 334T404 249Q404 199 371 159Q403 121 403 70Q403 9 357 -30T231 -69Q175 -69 127 -56T51
-25L74 19Q128 -8 216 -8Q271 -8 300 13T329 70Q329 101 311 123T246 162L145 199Q98 216 75 247T52 315Q52 342 63 365T95 405Q75 422 64 446T53 500Q53 554 96 589T217 624Q271 624 316 612T389 583L365 534ZM140 368T128 353T116 315Q116 272 172 251L261 219Q300
203 310 196Q331 222 331 252Q331 313 251 342L159 375Q140 368 128 353Z" />
<glyph unicode="&#xa8;" glyph-name="dieresis" horiz-adv-x="389" d="M74 625T62 636T50 665Q50 682 62 694T91 706Q108 706 119 694T131 665Q131 648 120 637T91 625Q74 625 62 636ZM282 625T270 636T258 665Q258 682 270 694T299 706Q316 706 327 694T339 665Q339
648 328 637T299 625Q282 625 270 636Z" />
<glyph unicode="&#xa9;" glyph-name="copyright" horiz-adv-x="818" d="M506 709T588 661T719 530T768 350Q768 253 720 171T589 40T409 -9Q312 -9 230 39T99 170T50 350Q50 447 98 529T229 660T409 709Q506 709 588 661ZM326 652T257 612T148 502T107 350Q107
267 147 198T257 89T409 48Q492 48 561 88T670 198T711 350Q711 432 671 501T561 611T409 652Q326 652 257 612ZM446 535T477 524T533 491L491 450Q457 476 415 476Q362 476 326 440T289 351Q289 298 325 262T415 225Q455 225 490 250L532 209Q507 189 477 178T413
166Q363 166 321 191T254 258T229 351Q229 401 254 443T321 510T413 535Q446 535 477 524Z" />
<glyph unicode="&#xaa;" glyph-name="ordfeminine" horiz-adv-x="374" d="M242 712T279 674T316 571V383H267V409Q247 394 218 386T162 378Q104 378 70 409T35 494Q35 546 72 575T172 605Q223 605 262 585Q259 625 236 645T172 666Q104 666 69 634L48 675Q94 712
176 712Q242 712 279 674ZM130 561T109 543T88 493Q88 424 168 424Q192 424 220 433T263 458V539Q231 561 173 561Q130 561 109 543Z" />
<glyph unicode="&#xab;" glyph-name="guillemotleft" horiz-adv-x="438" d="M215 360L96 279L215 200V134L50 252V307L215 426V360ZM388 360L269 279L388 200V134L223 252V307L388 426V360Z" />
<glyph unicode="&#xac;" glyph-name="logicalnot" horiz-adv-x="538" d="M429 279H50V338H488V156H429V279Z" />
<glyph unicode="&#xad;" glyph-name="uni00AD" horiz-adv-x="384" d="M334 252H50V311H334V252Z" />
<glyph unicode="&#xae;" glyph-name="registered" horiz-adv-x="818" d="M506 709T588 661T719 530T768 350Q768 253 720 171T589 40T409 -9Q312 -9 230 39T99 170T50 350Q50 447 98 529T229 660T409 709Q506 709 588 661ZM326 652T257 612T148 502T107 350Q107
267 147 198T257 89T409 48Q492 48 561 88T670 198T711 350Q711 432 671 501T561 611T409 652Q326 652 257 612ZM466 534T498 505T530 431Q530 395 508 369T450 334L551 176H495L404 328H343V176H293V534H417Q466 534 498 505ZM344 487V376H416Q444 376 461 390T478
431Q478 457 461 472T416 487H344Z" />
<glyph unicode="&#xaf;" glyph-name="overscore" horiz-adv-x="405" d="M355 649H50V700H355V649Z" />
<glyph unicode="&#xb0;" glyph-name="degree" horiz-adv-x="370" d="M222 708T253 690T302 641T321 574Q321 537 303 506T253 457T185 439Q148 439 117 457T68 506T50 574Q50 610 68 641T118 690T185 708Q222 708 253 690ZM154 649T132 627T110 574Q110 543 132
521T185 499Q217 499 238 521T260 574Q260 606 239 627T185 649Q154 649 132 627Z" />
<glyph unicode="&#xb1;" glyph-name="plusminus" horiz-adv-x="538" d="M299 395H488V336H299V197H239V336H50V395H239V535H299V395ZM488 0H50V59H488V0Z" />
<glyph unicode="&#xb2;" glyph-name="uni00B2" horiz-adv-x="308" d="M46 398Q46 473 74 508T149 562Q154 564 173 570T201 587T211 612Q211 633 197 645Q180 659 154 659Q114 659 81 632L49 663Q72 684 101 695T160 707Q208 707 236 680Q249 670 257 654T265
617Q265 579 244 561T178 526Q140 510 121 488T102 417H263V366H46V398Z" />
<glyph unicode="&#xb3;" glyph-name="uni00B3" horiz-adv-x="302" d="M198 706T227 683T256 618Q256 588 239 567T193 539Q223 534 241 511T260 451Q260 409 231 386T152 362Q91 362 43 399L74 432Q106 407 145 407Q171 407 188 420T205 458Q205 485 189 499T141
514H108V561H140Q168 561 184 575T200 613Q200 636 185 648T146 661Q107 661 75 636L43 667Q91 706 153 706Q198 706 227 683Z" />
<glyph unicode="&#xb4;" glyph-name="acute" horiz-adv-x="250" d="M107 575H50L118 700H200L107 575Z" />
<glyph unicode="&#xb6;" glyph-name="paragraph" horiz-adv-x="597" d="M547 641H509V-163H449V641H343V-163H283V308Q166 308 104 359T41 500Q41 607 100 653T285 700H547V641Z" />
<glyph unicode="&#xb7;" glyph-name="middot" horiz-adv-x="181" d="M74 273T62 284T50 313Q50 330 62 342T91 354Q107 354 119 342T131 313Q131 297 120 285T91 273Q74 273 62 284Z" />
<glyph unicode="&#xb8;" glyph-name="cedilla" horiz-adv-x="258" d="M127 -43H136Q171 -43 191 -64T211 -115Q211 -145 190 -167T133 -189H47V-148H129Q148 -148 157 -138T167 -115Q167 -100 158 -90T129 -80H87V2H127V-43Z" />
<glyph unicode="&#xb9;" glyph-name="uni00B9" horiz-adv-x="155" d="M105 700V362H50V700H105Z" />
<glyph unicode="&#xba;" glyph-name="ordmasculine" horiz-adv-x="411" d="M251 713T289 690T351 629T374 545Q374 500 351 462T290 400T206 377Q161 377 122 400T59 461T36 545Q36 590 59 628T121 690T206 713Q251 713 289 690ZM157 662T123 628T89 545Q89 496
123 463T206 429Q254 429 287 462T321 545Q321 594 288 628T206 662Q157 662 123 628Z" />
<glyph unicode="&#xbb;" glyph-name="guillemotright" horiz-adv-x="438" d="M215 307V252L50 134V200L169 279L50 360V426L215 307ZM388 307V252L223 134V200L342 279L223 360V426L388 307Z" />
<glyph unicode="&#xbc;" glyph-name="onequarter" horiz-adv-x="646" d="M105 362H50V700H105V362ZM163 0H100L415 700H478L163 0ZM572 130H596V82H572V0H517V82H349V133L511 338H572V130ZM401 130H517V280L401 130Z" />
<glyph unicode="&#xbd;" glyph-name="onehalf" horiz-adv-x="667" d="M105 362H50V700H105V362ZM157 0H94L409 700H472L157 0ZM534 341T555 334T591 313Q617 289 617 250Q617 223 606 207T578 181T530 160Q491 143 472 122T453 51H615V0H397V32Q397 109 425 143T500
196Q507 199 526 205T554 222T563 249Q563 265 551 277Q536 293 507 293Q468 293 432 266L401 297Q423 317 452 329T511 341Q534 341 555 334Z" />
<glyph unicode="&#xbe;" glyph-name="threequarters" horiz-adv-x="740" d="M205 706T234 683T263 618Q263 588 246 567T200 539Q231 534 249 511T268 451Q268 410 239 387T159 361Q99 361 50 399L82 432Q114 407 152 407Q178 407 195 420T212 458Q212 485 196
499T149 514H115V561H148Q176 561 192 575T208 613Q208 636 193 648T153 661Q115 661 82 636L51 667Q98 706 160 706Q205 706 234 683ZM256 0H193L508 700H571L256 0ZM665 130H690V82H665V0H610V82H442V133L604 338H665V130ZM494 130H610V280L494 130Z" />
<glyph unicode="&#xbf;" glyph-name="questiondown" horiz-adv-x="509" d="M293 475T281 487T268 516Q268 533 280 544T309 556Q326 556 337 545T349 516Q349 499 338 487T309 475Q293 475 281 487ZM174 -163T115 -118Q84 -94 67 -59T50 19Q50 77 82 111T178 173Q213
188 233 202T265 243T278 313H342Q342 256 325 221T281 166T206 125Q159 105 135 82T111 17Q111 -39 154 -74Q172 -88 198 -96T253 -104Q347 -104 419 -43L460 -85Q417 -122 363 -142T252 -163Q174 -163 115 -118Z" />
<glyph unicode="&#xc0;" glyph-name="Agrave" horiz-adv-x="753" d="M710 0H644L549 220H205L109 0H44L342 700H412L710 0ZM230 282H524L377 627L230 282ZM337 900L405 775H347L255 900H337Z" />
<glyph unicode="&#xc1;" glyph-name="Aacute" horiz-adv-x="753" d="M710 0H644L549 220H205L109 0H44L342 700H412L710 0ZM230 282H524L377 627L230 282ZM403 775H346L414 900H496L403 775Z" />
<glyph unicode="&#xc2;" glyph-name="Acircumflex" horiz-adv-x="753" d="M710 0H644L549 220H205L109 0H44L342 700H412L710 0ZM230 282H524L377 627L230 282ZM531 766H462L377 862L292 766H223L346 900H408L531 766Z" />
<glyph unicode="&#xc3;" glyph-name="Atilde" horiz-adv-x="753" d="M710 0H644L549 220H205L109 0H44L342 700H412L710 0ZM230 282H524L377 627L230 282ZM509 831L486 808Q469 791 443 791Q417 791 392 806L347 833Q324 846 306 846Q290 846 279 835L237 793V853L266
882Q282 898 305 898Q331 898 358 882L403 856Q426 842 443 842Q460 842 473 855L509 891V831Z" />
<glyph unicode="&#xc4;" glyph-name="Adieresis" horiz-adv-x="753" d="M710 0H644L549 220H205L109 0H44L342 700H412L710 0ZM230 282H524L377 627L230 282ZM256 780T244 792T232 821Q232 838 244 849T273 861Q290 861 301 850T313 821Q313 804 302 792T273 780Q256
780 244 792ZM464 780T452 792T440 821Q440 838 452 849T481 861Q498 861 509 850T521 821Q521 804 510 792T481 780Q464 780 452 792Z" />
<glyph unicode="&#xc5;" glyph-name="Aring" horiz-adv-x="753" d="M710 0H644L549 220H205L109 0H44L342 700H412L710 0ZM230 282H524L377 627L230 282ZM419 942T449 912T479 841Q479 799 449 770T377 740Q335 740 306 769T276 841Q276 882 305 912T377 942Q419
942 449 912ZM356 893T341 878T326 841Q326 819 340 804T377 789Q399 789 414 804T429 841Q429 862 414 877T377 893Q356 893 341 878Z" />
<glyph unicode="&#xc6;" glyph-name="AE" horiz-adv-x="841" d="M784 642H431V393H780V335H431V58H788V0H369V220H204L109 0H44L342 700H784V642ZM230 282H369L368 608L230 282Z" />
<glyph unicode="&#xc7;" glyph-name="Ccedilla" horiz-adv-x="730" d="M586 -3T470 -9V-43H479Q514 -43 534 -64T554 -115Q554 -145 533 -167T476 -189H390V-148H472Q491 -148 500 -138T510 -115Q510 -100 501 -90T472 -80H430V-8Q338 -2 261 47T138 176T93 350Q93
448 141 530T273 661T453 709Q515 709 572 689T677 630L634 587Q596 617 550 632T453 648Q371 648 303 608T195 500T155 350Q155 269 195 201T303 92T453 52Q503 52 549 67T633 112L677 70Q586 -3 470 -9Z" />
<glyph unicode="&#xc8;" glyph-name="Egrave" horiz-adv-x="579" d="M522 642H168V393H518V335H168V58H525V0H106V700H522V642ZM275 900L343 775H285L193 900H275Z" />
<glyph unicode="&#xc9;" glyph-name="Eacute" horiz-adv-x="579" d="M522 642H168V393H518V335H168V58H525V0H106V700H522V642ZM341 775H284L352 900H434L341 775Z" />
<glyph unicode="&#xca;" glyph-name="Ecircumflex" horiz-adv-x="579" d="M522 642H168V393H518V335H168V58H525V0H106V700H522V642ZM469 766H400L315 862L230 766H161L284 900H346L469 766Z" />
<glyph unicode="&#xcb;" glyph-name="Edieresis" horiz-adv-x="579" d="M522 642H168V393H518V335H168V58H525V0H106V700H522V642ZM194 780T182 792T170 821Q170 838 182 849T211 861Q228 861 239 850T251 821Q251 804 240 792T211 780Q194 780 182 792ZM402 780T390
792T378 821Q378 838 390 849T419 861Q436 861 447 850T459 821Q459 804 448 792T419 780Q402 780 390 792Z" />
<glyph unicode="&#xcc;" glyph-name="Igrave" horiz-adv-x="275" d="M168 700V0H106V700H168ZM98 900L166 775H108L16 900H98Z" />
<glyph unicode="&#xcd;" glyph-name="Iacute" horiz-adv-x="275" d="M168 700V0H106V700H168ZM164 775H107L175 900H257L164 775Z" />
<glyph unicode="&#xce;" glyph-name="Icircumflex" horiz-adv-x="275" d="M168 700V0H106V700H168ZM292 766H223L138 862L53 766H-16L107 900H169L292 766Z" />
<glyph unicode="&#xcf;" glyph-name="Idieresis" horiz-adv-x="275" d="M168 700V0H106V700H168ZM17 780T5 792T-7 821Q-7 838 5 849T34 861Q51 861 62 850T74 821Q74 804 63 792T34 780Q17 780 5 792ZM225 780T213 792T201 821Q201 838 213 849T242 861Q259 861
270 850T282 821Q282 804 271 792T242 780Q225 780 213 792Z" />
<glyph unicode="&#xd0;" glyph-name="Eth" horiz-adv-x="835" d="M487 700T569 653T700 526T749 350Q749 255 701 175T570 47T389 0H144V325H36V384H144V700H389Q487 700 569 653ZM470 60T538 99T647 205T687 350Q687 428 647 495T539 601T389 640H206V384H321V325H206V60H389Q470
60 538 99Z" />
<glyph unicode="&#xd1;" glyph-name="Ntilde" horiz-adv-x="745" d="M576 100V700H638V0H569L168 601V0H106V700H176L576 100ZM505 831L482 808Q465 791 439 791Q413 791 388 806L343 833Q320 846 302 846Q286 846 275 835L233 793V853L262 882Q278 898 301 898Q327
898 354 882L399 856Q422 842 439 842Q456 842 469 855L505 891V831Z" />
<glyph unicode="&#xd2;" glyph-name="Ograve" horiz-adv-x="880" d="M537 709T620 661T751 531T800 350Q800 252 752 170T620 39T440 -9Q343 -9 260 39T129 169T80 350Q80 448 128 530T260 661T440 709Q537 709 620 661ZM359 648T291 608T182 500T142 350Q142
269 182 201T290 92T440 52Q521 52 589 92T698 200T738 350Q738 431 698 499T590 608T440 648Q359 648 291 608ZM400 900L468 775H410L318 900H400Z" />
<glyph unicode="&#xd3;" glyph-name="Oacute" horiz-adv-x="880" d="M537 709T620 661T751 531T800 350Q800 252 752 170T620 39T440 -9Q343 -9 260 39T129 169T80 350Q80 448 128 530T260 661T440 709Q537 709 620 661ZM359 648T291 608T182 500T142 350Q142
269 182 201T290 92T440 52Q521 52 589 92T698 200T738 350Q738 431 698 499T590 608T440 648Q359 648 291 608ZM466 775H409L477 900H559L466 775Z" />
<glyph unicode="&#xd4;" glyph-name="Ocircumflex" horiz-adv-x="880" d="M537 709T620 661T751 531T800 350Q800 252 752 170T620 39T440 -9Q343 -9 260 39T129 169T80 350Q80 448 128 530T260 661T440 709Q537 709 620 661ZM359 648T291 608T182 500T142 350Q142
269 182 201T290 92T440 52Q521 52 589 92T698 200T738 350Q738 431 698 499T590 608T440 648Q359 648 291 608ZM594 766H525L440 862L355 766H286L409 900H471L594 766Z" />
<glyph unicode="&#xd5;" glyph-name="Otilde" horiz-adv-x="880" d="M537 709T620 661T751 531T800 350Q800 252 752 170T620 39T440 -9Q343 -9 260 39T129 169T80 350Q80 448 128 530T260 661T440 709Q537 709 620 661ZM359 648T291 608T182 500T142 350Q142
269 182 201T290 92T440 52Q521 52 589 92T698 200T738 350Q738 431 698 499T590 608T440 648Q359 648 291 608ZM572 831L549 808Q532 791 506 791Q480 791 455 806L410 833Q387 846 369 846Q353 846 342 835L300 793V853L329 882Q345 898 368 898Q394 898 421
882L466 856Q489 842 506 842Q523 842 536 855L572 891V831Z" />
<glyph unicode="&#xd6;" glyph-name="Odieresis" horiz-adv-x="880" d="M537 709T620 661T751 531T800 350Q800 252 752 170T620 39T440 -9Q343 -9 260 39T129 169T80 350Q80 448 128 530T260 661T440 709Q537 709 620 661ZM359 648T291 608T182 500T142 350Q142
269 182 201T290 92T440 52Q521 52 589 92T698 200T738 350Q738 431 698 499T590 608T440 648Q359 648 291 608ZM319 780T307 792T295 821Q295 838 307 849T336 861Q353 861 364 850T376 821Q376 804 365 792T336 780Q319 780 307 792ZM527 780T515 792T503 821Q503
838 515 849T544 861Q561 861 572 850T584 821Q584 804 573 792T544 780Q527 780 515 792Z" />
<glyph unicode="&#xd7;" glyph-name="multiply" horiz-adv-x="451" d="M401 442L267 309L401 175L359 133L226 267L92 133L50 175L184 309L50 442L92 484L226 350L359 484L401 442Z" />
<glyph unicode="&#xd8;" glyph-name="Oslash" horiz-adv-x="880" d="M695 622T747 537T800 350Q800 252 752 170T620 39T440 -9Q373 -9 313 14L284 -50H221L261 39Q178 86 129 168T80 350Q80 448 128 530T260 661T440 709Q500 709 554 691L581 750H644L607 668Q695
622 747 537ZM142 270T181 203T286 95L529 635Q483 648 440 648Q359 648 291 608T182 500T142 350Q142 270 181 203ZM521 52T589 92T698 200T738 350Q738 434 696 504T582 612L338 70Q386 52 440 52Q521 52 589 92Z" />
<glyph unicode="&#xd9;" glyph-name="Ugrave" horiz-adv-x="753" d="M655 700V258Q655 187 619 126T520 28T380 -9Q303 -9 241 27T142 125T106 258V700H170V264Q170 206 198 158T274 81T380 52Q438 52 486 80T563 157T591 264V700H655ZM341 900L409 775H351L259 900H341Z" />
<glyph unicode="&#xda;" glyph-name="Uacute" horiz-adv-x="753" d="M655 700V258Q655 187 619 126T520 28T380 -9Q303 -9 241 27T142 125T106 258V700H170V264Q170 206 198 158T274 81T380 52Q438 52 486 80T563 157T591 264V700H655ZM407 775H350L418 900H500L407 775Z" />
<glyph unicode="&#xdb;" glyph-name="Ucircumflex" horiz-adv-x="753" d="M655 700V258Q655 187 619 126T520 28T380 -9Q303 -9 241 27T142 125T106 258V700H170V264Q170 206 198 158T274 81T380 52Q438 52 486 80T563 157T591 264V700H655ZM535 766H466L381 862L296
766H227L350 900H412L535 766Z" />
<glyph unicode="&#xdc;" glyph-name="Udieresis" horiz-adv-x="753" d="M655 700V258Q655 187 619 126T520 28T380 -9Q303 -9 241 27T142 125T106 258V700H170V264Q170 206 198 158T274 81T380 52Q438 52 486 80T563 157T591 264V700H655ZM260 780T248 792T236
821Q236 838 248 849T277 861Q294 861 305 850T317 821Q317 804 306 792T277 780Q260 780 248 792ZM468 780T456 792T444 821Q444 838 456 849T485 861Q502 861 513 850T525 821Q525 804 514 792T485 780Q468 780 456 792Z" />
<glyph unicode="&#xdd;" glyph-name="Yacute" horiz-adv-x="668" d="M365 294V0H303V294L44 700H112L334 353L557 700H625L365 294ZM360 775H303L371 900H453L360 775Z" />
<glyph unicode="&#xde;" glyph-name="Thorn" horiz-adv-x="602" d="M168 571H314Q375 571 422 548T496 481T522 379Q522 292 466 240T315 187H168V0H106V700H168V571ZM169 510V248H314Q378 248 419 284T460 379Q460 438 418 474T314 510H169Z" />
<glyph unicode="&#xdf;" glyph-name="germandbls" horiz-adv-x="680" d="M447 707T511 658T576 524Q576 469 546 428T465 365Q524 342 560 295T596 188Q596 130 566 88T485 23T369 0H212V61H358Q435 62 483 95T531 191Q531 254 483 291T356 328L355 391Q428 393
469 427T511 520Q511 582 465 614T331 647Q242 647 196 615T150 520V0H88V524Q88 610 151 658T330 707Q447 707 511 658Z" />
<glyph unicode="&#xe0;" glyph-name="agrave" horiz-adv-x="554" d="M378 509T433 452T488 293V0H433V53Q407 26 357 9T258 -9Q166 -9 115 37T63 169Q63 248 116 294T270 341Q353 341 427 302Q426 375 385 413T269 452Q165 452 110 410L85 457Q154 509 276 509Q378
509 433 452ZM196 284T160 253T124 168Q124 112 159 82T264 52Q302 52 349 67T427 106V247Q394 266 352 275T270 284Q196 284 160 253ZM237 700L305 575H247L155 700H237Z" />
<glyph unicode="&#xe1;" glyph-name="aacute" horiz-adv-x="554" d="M378 509T433 452T488 293V0H433V53Q407 26 357 9T258 -9Q166 -9 115 37T63 169Q63 248 116 294T270 341Q353 341 427 302Q426 375 385 413T269 452Q165 452 110 410L85 457Q154 509 276 509Q378
509 433 452ZM196 284T160 253T124 168Q124 112 159 82T264 52Q302 52 349 67T427 106V247Q394 266 352 275T270 284Q196 284 160 253ZM303 575H246L314 700H396L303 575Z" />
<glyph unicode="&#xe2;" glyph-name="acircumflex" horiz-adv-x="554" d="M378 509T433 452T488 293V0H433V53Q407 26 357 9T258 -9Q166 -9 115 37T63 169Q63 248 116 294T270 341Q353 341 427 302Q426 375 385 413T269 452Q165 452 110 410L85 457Q154 509 276
509Q378 509 433 452ZM196 284T160 253T124 168Q124 112 159 82T264 52Q302 52 349 67T427 106V247Q394 266 352 275T270 284Q196 284 160 253ZM431 566H362L277 662L192 566H123L246 700H308L431 566Z" />
<glyph unicode="&#xe3;" glyph-name="atilde" horiz-adv-x="554" d="M378 509T433 452T488 293V0H433V53Q407 26 357 9T258 -9Q166 -9 115 37T63 169Q63 248 116 294T270 341Q353 341 427 302Q426 375 385 413T269 452Q165 452 110 410L85 457Q154 509 276 509Q378
509 433 452ZM196 284T160 253T124 168Q124 112 159 82T264 52Q302 52 349 67T427 106V247Q394 266 352 275T270 284Q196 284 160 253ZM409 631L386 608Q369 591 343 591Q317 591 292 606L247 633Q224 646 206 646Q190 646 179 635L137 593V653L166 682Q182 698
205 698Q231 698 258 682L303 656Q326 642 343 642Q360 642 373 655L409 691V631Z" />
<glyph unicode="&#xe4;" glyph-name="adieresis" horiz-adv-x="554" d="M378 509T433 452T488 293V0H433V53Q407 26 357 9T258 -9Q166 -9 115 37T63 169Q63 248 116 294T270 341Q353 341 427 302Q426 375 385 413T269 452Q165 452 110 410L85 457Q154 509 276
509Q378 509 433 452ZM196 284T160 253T124 168Q124 112 159 82T264 52Q302 52 349 67T427 106V247Q394 266 352 275T270 284Q196 284 160 253ZM156 580T144 592T132 621Q132 638 144 649T173 661Q190 661 201 650T213 621Q213 604 202 592T173 580Q156 580 144
592ZM364 580T352 592T340 621Q340 638 352 649T381 661Q398 661 409 650T421 621Q421 604 410 592T381 580Q364 580 352 592Z" />
<glyph unicode="&#xe5;" glyph-name="aring" horiz-adv-x="554" d="M378 509T433 452T488 293V0H433V53Q407 26 357 9T258 -9Q166 -9 115 37T63 169Q63 248 116 294T270 341Q353 341 427 302Q426 375 385 413T269 452Q165 452 110 410L85 457Q154 509 276 509Q378
509 433 452ZM196 284T160 253T124 168Q124 112 159 82T264 52Q302 52 349 67T427 106V247Q394 266 352 275T270 284Q196 284 160 253ZM319 742T349 712T379 641Q379 599 349 570T277 540Q235 540 206 569T176 641Q176 682 205 712T277 742Q319 742 349 712ZM256
693T241 678T226 641Q226 619 240 604T277 589Q299 589 314 604T329 641Q329 662 314 677T277 693Q256 693 241 678Z" />
<glyph unicode="&#xe6;" glyph-name="ae" horiz-adv-x="990" d="M353 509T402 475T469 373Q500 434 559 471T690 508Q759 508 812 478T893 404T922 316Q922 279 899 256T832 232H501Q501 180 527 139T599 74T697 50Q790 50 841 97L885 54Q818 -8 700 -8Q634 -8
577 24T488 109V0H433V53Q407 26 356 9T255 -8Q165 -8 114 38T63 169Q63 247 116 293T267 340Q354 340 427 302Q426 375 385 413T269 452Q165 452 110 410L85 457Q154 509 276 509Q353 509 402 475ZM640 451T598 429T531 370T502 288H810Q832 288 844 299T856 329Q856
348 843 372Q826 405 786 428T690 451Q640 451 598 429ZM196 283T160 252T124 168Q124 112 159 82T264 52Q302 52 349 67T427 106V247Q394 266 352 275T270 284Q196 283 160 252Z" />
<glyph unicode="&#xe7;" glyph-name="ccedilla" horiz-adv-x="560" d="M459 23T421 9T340 -7V-43H349Q384 -43 404 -64T424 -115Q424 -145 403 -167T346 -189H260V-148H342Q361 -148 370 -138T380 -115Q380 -100 371 -90T342 -80H300V-5Q237 2 185 38T103 130T73
251Q73 321 108 380T202 474T331 509Q376 509 417 494T492 452L449 410Q398 449 331 449Q277 449 232 423T160 351T133 251Q133 196 159 151T231 79T331 52Q398 52 449 91L491 48Q459 23 421 9Z" />
<glyph unicode="&#xe8;" glyph-name="egrave" horiz-adv-x="630" d="M400 508T453 478T534 404T563 316Q563 279 540 255T472 231H141Q141 180 168 139T240 74T337 50Q379 50 415 60T481 97L524 54Q458 -8 339 -8Q269 -8 208 24T110 116T73 250Q73 320 107 379T201
473T331 508Q400 508 453 478ZM280 451T238 429T171 370T142 288H449Q472 288 484 300T496 332Q496 364 472 391T410 435T331 451Q280 451 238 429ZM290 700L358 575H300L208 700H290Z" />
<glyph unicode="&#xe9;" glyph-name="eacute" horiz-adv-x="630" d="M400 508T453 478T534 404T563 316Q563 279 540 255T472 231H141Q141 180 168 139T240 74T337 50Q379 50 415 60T481 97L524 54Q458 -8 339 -8Q269 -8 208 24T110 116T73 250Q73 320 107 379T201
473T331 508Q400 508 453 478ZM280 451T238 429T171 370T142 288H449Q472 288 484 300T496 332Q496 364 472 391T410 435T331 451Q280 451 238 429ZM356 575H299L367 700H449L356 575Z" />
<glyph unicode="&#xea;" glyph-name="ecircumflex" horiz-adv-x="630" d="M400 508T453 478T534 404T563 316Q563 279 540 255T472 231H141Q141 180 168 139T240 74T337 50Q379 50 415 60T481 97L524 54Q458 -8 339 -8Q269 -8 208 24T110 116T73 250Q73 320 107
379T201 473T331 508Q400 508 453 478ZM280 451T238 429T171 370T142 288H449Q472 288 484 300T496 332Q496 364 472 391T410 435T331 451Q280 451 238 429ZM484 566H415L330 662L245 566H176L299 700H361L484 566Z" />
<glyph unicode="&#xeb;" glyph-name="edieresis" horiz-adv-x="630" d="M400 508T453 478T534 404T563 316Q563 279 540 255T472 231H141Q141 180 168 139T240 74T337 50Q379 50 415 60T481 97L524 54Q458 -8 339 -8Q269 -8 208 24T110 116T73 250Q73 320 107
379T201 473T331 508Q400 508 453 478ZM280 451T238 429T171 370T142 288H449Q472 288 484 300T496 332Q496 364 472 391T410 435T331 451Q280 451 238 429ZM209 580T197 592T185 621Q185 638 197 649T226 661Q243 661 254 650T266 621Q266 604 255 592T226 580Q209
580 197 592ZM417 580T405 592T393 621Q393 638 405 649T434 661Q451 661 462 650T474 621Q474 604 463 592T434 580Q417 580 405 592Z" />
<glyph unicode="&#xec;" glyph-name="igrave" horiz-adv-x="237" d="M150 0H91V500H150V0ZM81 700L149 575H91L-1 700H81Z" />
<glyph unicode="&#xed;" glyph-name="iacute" horiz-adv-x="237" d="M150 0H91V500H150V0ZM147 575H90L158 700H240L147 575Z" />
<glyph unicode="&#xee;" glyph-name="icircumflex" horiz-adv-x="237" d="M150 0H91V500H150V0ZM275 566H206L121 662L36 566H-33L90 700H152L275 566Z" />
<glyph unicode="&#xef;" glyph-name="idieresis" horiz-adv-x="237" d="M150 0H91V500H150V0ZM0 580T-12 592T-24 621Q-24 638 -12 649T17 661Q34 661 45 650T57 621Q57 604 46 592T17 580Q0 580 -12 592ZM208 580T196 592T184 621Q184 638 196 649T225 661Q242
661 253 650T265 621Q265 604 254 592T225 580Q208 580 196 592Z" />
<glyph unicode="&#xf0;" glyph-name="eth" horiz-adv-x="629" d="M212 750T269 733T375 683L451 738L479 703L412 655Q477 597 513 512T550 320Q550 280 546 247Q533 132 472 62T312 -8Q238 -8 186 26T107 119T80 248Q80 322 108 382T188 478T307 514Q367 514
412 483T480 401Q473 469 443 525T365 620L275 553L247 588L320 642Q246 691 151 691V750Q212 750 269 733ZM258 455T220 427T161 352T141 248Q141 163 186 107T312 51Q385 51 431 105T485 249Q485 306 465 353T406 427T312 455Q258 455 220 427Z" />
<glyph unicode="&#xf1;" glyph-name="ntilde" horiz-adv-x="607" d="M464 242Q464 349 426 400T296 451Q259 451 219 437T148 402V0H86V500H146V454Q178 478 220 493T306 508Q423 508 474 440T526 241V0H464V242ZM434 631L411 608Q394 591 368 591Q342 591 317
606L272 633Q249 646 231 646Q215 646 204 635L162 593V653L191 682Q207 698 230 698Q256 698 283 682L328 656Q351 642 368 642Q385 642 398 655L434 691V631Z" />
<glyph unicode="&#xf2;" glyph-name="ograve" horiz-adv-x="662" d="M401 508T460 474T555 380T590 250Q590 179 555 120T461 27T331 -8Q261 -8 202 26T108 120T73 250Q73 320 108 379T202 473T331 508Q401 508 460 474ZM277 448T232 422T161 350T134 250Q134
196 160 151T232 79T331 52Q385 52 430 78T502 150T529 250Q529 304 503 349T431 421T331 448Q277 448 232 422ZM290 700L358 575H300L208 700H290Z" />
<glyph unicode="&#xf3;" glyph-name="oacute" horiz-adv-x="662" d="M401 508T460 474T555 380T590 250Q590 179 555 120T461 27T331 -8Q261 -8 202 26T108 120T73 250Q73 320 108 379T202 473T331 508Q401 508 460 474ZM277 448T232 422T161 350T134 250Q134
196 160 151T232 79T331 52Q385 52 430 78T502 150T529 250Q529 304 503 349T431 421T331 448Q277 448 232 422ZM356 575H299L367 700H449L356 575Z" />
<glyph unicode="&#xf4;" glyph-name="ocircumflex" horiz-adv-x="662" d="M401 508T460 474T555 380T590 250Q590 179 555 120T461 27T331 -8Q261 -8 202 26T108 120T73 250Q73 320 108 379T202 473T331 508Q401 508 460 474ZM277 448T232 422T161 350T134 250Q134
196 160 151T232 79T331 52Q385 52 430 78T502 150T529 250Q529 304 503 349T431 421T331 448Q277 448 232 422ZM484 566H415L330 662L245 566H176L299 700H361L484 566Z" />
<glyph unicode="&#xf5;" glyph-name="otilde" horiz-adv-x="662" d="M401 508T460 474T555 380T590 250Q590 179 555 120T461 27T331 -8Q261 -8 202 26T108 120T73 250Q73 320 108 379T202 473T331 508Q401 508 460 474ZM277 448T232 422T161 350T134 250Q134
196 160 151T232 79T331 52Q385 52 430 78T502 150T529 250Q529 304 503 349T431 421T331 448Q277 448 232 422ZM462 631L439 608Q422 591 396 591Q370 591 345 606L300 633Q277 646 259 646Q243 646 232 635L190 593V653L219 682Q235 698 258 698Q284 698 311
682L356 656Q379 642 396 642Q413 642 426 655L462 691V631Z" />
<glyph unicode="&#xf6;" glyph-name="odieresis" horiz-adv-x="662" d="M401 508T460 474T555 380T590 250Q590 179 555 120T461 27T331 -8Q261 -8 202 26T108 120T73 250Q73 320 108 379T202 473T331 508Q401 508 460 474ZM277 448T232 422T161 350T134 250Q134
196 160 151T232 79T331 52Q385 52 430 78T502 150T529 250Q529 304 503 349T431 421T331 448Q277 448 232 422ZM209 580T197 592T185 621Q185 638 197 649T226 661Q243 661 254 650T266 621Q266 604 255 592T226 580Q209 580 197 592ZM417 580T405 592T393 621Q393
638 405 649T434 661Q451 661 462 650T474 621Q474 604 463 592T434 580Q417 580 405 592Z" />
<glyph unicode="&#xf7;" glyph-name="divide" horiz-adv-x="514" d="M275 466T287 454T299 425Q299 408 287 397T258 385Q242 385 230 397T218 425Q218 442 229 454T258 466Q275 466 287 454ZM464 228H50V287H464V228ZM274 129T286 118T298 89Q298 72 286 60T257
48Q240 48 229 60T217 89Q217 106 228 117T257 129Q274 129 286 118Z" />
<glyph unicode="&#xf8;" glyph-name="oslash" horiz-adv-x="662" d="M519 440T554 381T590 250Q590 179 555 120T461 27T331 -8Q288 -8 248 6L223 -50H161L197 29Q140 63 107 122T73 250Q73 320 108 379T202 473T331 508Q369 508 407 497L431 550H493L459 474Q519
440 554 381ZM134 199T158 156T222 85L382 441Q360 448 331 448Q277 448 232 422T161 350T134 250Q134 199 158 156ZM385 52T430 78T502 150T529 250Q529 303 503 348T434 419L273 61Q300 52 331 52Q385 52 430 78Z" />
<glyph unicode="&#xf9;" glyph-name="ugrave" horiz-adv-x="616" d="M530 0H470V62Q433 28 387 10T290 -8Q182 -8 132 59T81 259V500H143V259Q143 150 179 100T306 49Q347 49 389 66T469 115V500H530V0ZM266 700L334 575H276L184 700H266Z" />
<glyph unicode="&#xfa;" glyph-name="uacute" horiz-adv-x="616" d="M530 0H470V62Q433 28 387 10T290 -8Q182 -8 132 59T81 259V500H143V259Q143 150 179 100T306 49Q347 49 389 66T469 115V500H530V0ZM332 575H275L343 700H425L332 575Z" />
<glyph unicode="&#xfb;" glyph-name="ucircumflex" horiz-adv-x="616" d="M530 0H470V62Q433 28 387 10T290 -8Q182 -8 132 59T81 259V500H143V259Q143 150 179 100T306 49Q347 49 389 66T469 115V500H530V0ZM460 566H391L306 662L221 566H152L275 700H337L460 566Z" />
<glyph unicode="&#xfc;" glyph-name="udieresis" horiz-adv-x="616" d="M530 0H470V62Q433 28 387 10T290 -8Q182 -8 132 59T81 259V500H143V259Q143 150 179 100T306 49Q347 49 389 66T469 115V500H530V0ZM185 580T173 592T161 621Q161 638 173 649T202 661Q219
661 230 650T242 621Q242 604 231 592T202 580Q185 580 173 592ZM393 580T381 592T369 621Q369 638 381 649T410 661Q427 661 438 650T450 621Q450 604 439 592T410 580Q393 580 381 592Z" />
<glyph unicode="&#xfd;" glyph-name="yacute" horiz-adv-x="580" d="M508 41Q508 -80 454 -134T283 -188Q226 -188 182 -174T97 -128L106 -79Q147 -109 188 -121T283 -134Q370 -134 409 -98T449 27V46Q417 22 376 7T291 -8Q177 -8 123 57T69 258V500H130V258Q130
150 168 100T299 50Q336 50 375 63T446 97V500H508V41ZM315 575H258L326 700H408L315 575Z" />
<glyph unicode="&#xfe;" glyph-name="thorn" horiz-adv-x="592" d="M142 458Q169 481 208 494T289 508Q402 508 461 446T520 250Q520 121 460 57T289 -8Q249 -7 215 3T147 37V-180H86V700H142V458ZM246 451T208 438T147 403V92Q171 73 208 62T283 50Q458 50 458
253Q458 353 418 402T283 451Q246 451 208 438Z" />
<glyph unicode="&#xff;" glyph-name="ydieresis" horiz-adv-x="580" d="M508 41Q508 -80 454 -134T283 -188Q226 -188 182 -174T97 -128L106 -79Q147 -109 188 -121T283 -134Q370 -134 409 -98T449 27V46Q417 22 376 7T291 -8Q177 -8 123 57T69 258V500H130V258Q130
150 168 100T299 50Q336 50 375 63T446 97V500H508V41ZM168 580T156 592T144 621Q144 638 156 649T185 661Q202 661 213 650T225 621Q225 604 214 592T185 580Q168 580 156 592ZM376 580T364 592T352 621Q352 638 364 649T393 661Q410 661 421 650T433 621Q433
604 422 592T393 580Q376 580 364 592Z" />
<glyph unicode="&#x100;" glyph-name="Amacron" horiz-adv-x="753" d="M710 0H644L549 220H205L109 0H44L342 700H412L710 0ZM230 282H524L377 627L230 282ZM529 849H224V900H529V849Z" />
<glyph unicode="&#x101;" glyph-name="amacron" horiz-adv-x="554" d="M378 509T433 452T488 293V0H433V53Q407 26 357 9T258 -9Q166 -9 115 37T63 169Q63 248 116 294T270 341Q353 341 427 302Q426 375 385 413T269 452Q165 452 110 410L85 457Q154 509 276 509Q378
509 433 452ZM196 284T160 253T124 168Q124 112 159 82T264 52Q302 52 349 67T427 106V247Q394 266 352 275T270 284Q196 284 160 253ZM429 649H124V700H429V649Z" />
<glyph unicode="&#x102;" glyph-name="Abreve" horiz-adv-x="753" d="M710 0H644L549 220H205L109 0H44L342 700H412L710 0ZM230 282H524L377 627L230 282ZM503 850T466 818T377 785Q326 785 288 818T244 900H297Q304 870 325 852T377 834Q406 834 428 852T457
900H510Q503 850 466 818Z" />
<glyph unicode="&#x103;" glyph-name="abreve" horiz-adv-x="554" d="M378 509T433 452T488 293V0H433V53Q407 26 357 9T258 -9Q166 -9 115 37T63 169Q63 248 116 294T270 341Q353 341 427 302Q426 375 385 413T269 452Q165 452 110 410L85 457Q154 509 276 509Q378
509 433 452ZM196 284T160 253T124 168Q124 112 159 82T264 52Q302 52 349 67T427 106V247Q394 266 352 275T270 284Q196 284 160 253ZM403 650T366 618T277 585Q226 585 188 618T144 700H197Q204 670 225 652T277 634Q306 634 328 652T357 700H410Q403 650 366
618Z" />
<glyph unicode="&#x104;" glyph-name="Aogonek" horiz-adv-x="753" d="M710 0H644L549 220H205L109 0H44L342 700H412L710 0ZM230 282H524L377 627L230 282ZM648 -34T648 -84Q648 -126 691 -126H714V-167H685Q650 -167 627 -147T604 -93Q604 -59 621 -38T671 0H710Q648
-34 648 -84Z" />
<glyph unicode="&#x105;" glyph-name="aogonek" horiz-adv-x="554" d="M492 -126V-167H463Q428 -167 405 -147T382 -93Q382 -59 399 -38T449 0H433V53Q407 26 357 9T258 -9Q166 -9 115 37T63 169Q63 248 116 294T270 341Q353 341 427 302Q426 375 385 413T269
452Q165 452 110 410L85 457Q154 509 276 509Q378 509 433 452T488 293V0Q426 -34 426 -84Q426 -126 469 -126H492ZM427 247Q394 266 352 275T270 284Q196 284 160 253T124 168Q124 112 159 82T264 52Q302 52 349 67T427 106V247Z" />
<glyph unicode="&#x106;" glyph-name="Cacute" horiz-adv-x="730" d="M515 709T572 689T677 630L634 587Q596 617 550 632T453 648Q371 648 303 608T195 500T155 350Q155 269 195 201T303 92T453 52Q503 52 549 67T633 112L677 70Q578 -9 453 -9Q356 -9 273 39T142
169T93 350Q93 448 141 530T273 661T453 709Q515 709 572 689ZM477 775H420L488 900H570L477 775Z" />
<glyph unicode="&#x107;" glyph-name="cacute" horiz-adv-x="560" d="M376 509T417 494T492 452L449 410Q398 449 331 449Q277 449 232 423T160 351T133 251Q133 196 159 151T231 79T331 52Q398 52 449 91L491 48Q458 22 417 8T331 -7Q261 -7 202 27T108 121T73
251Q73 321 108 380T202 474T331 509Q376 509 417 494ZM353 575H296L364 700H446L353 575Z" />
<glyph unicode="&#x10a;" glyph-name="Cdotaccent" horiz-adv-x="730" d="M515 709T572 689T677 630L634 587Q596 617 550 632T453 648Q371 648 303 608T195 500T155 350Q155 269 195 201T303 92T453 52Q503 52 549 67T633 112L677 70Q578 -9 453 -9Q356 -9 273
39T142 169T93 350Q93 448 141 530T273 661T453 709Q515 709 572 689ZM434 793T422 804T410 833Q410 850 422 862T451 874Q468 874 479 862T491 833Q491 816 480 805T451 793Q434 793 422 804Z" />
<glyph unicode="&#x10b;" glyph-name="cdotaccent" horiz-adv-x="560" d="M376 509T417 494T492 452L449 410Q398 449 331 449Q277 449 232 423T160 351T133 251Q133 196 159 151T231 79T331 52Q398 52 449 91L491 48Q458 22 417 8T331 -7Q261 -7 202 27T108 121T73
251Q73 321 108 380T202 474T331 509Q376 509 417 494ZM310 593T298 604T286 633Q286 650 298 662T327 674Q344 674 355 662T367 633Q367 616 356 605T327 593Q310 593 298 604Z" />
<glyph unicode="&#x10c;" glyph-name="Ccaron" horiz-adv-x="730" d="M515 709T572 689T677 630L634 587Q596 617 550 632T453 648Q371 648 303 608T195 500T155 350Q155 269 195 201T303 92T453 52Q503 52 549 67T633 112L677 70Q578 -9 453 -9Q356 -9 273 39T142
169T93 350Q93 448 141 530T273 661T453 709Q515 709 572 689ZM482 766H420L297 900H366L451 805L535 900H604L482 766Z" />
<glyph unicode="&#x10d;" glyph-name="ccaron" horiz-adv-x="560" d="M376 509T417 494T492 452L449 410Q398 449 331 449Q277 449 232 423T160 351T133 251Q133 196 159 151T231 79T331 52Q398 52 449 91L491 48Q458 22 417 8T331 -7Q261 -7 202 27T108 121T73
251Q73 321 108 380T202 474T331 509Q376 509 417 494ZM358 566H296L173 700H242L327 605L411 700H480L358 566Z" />
<glyph unicode="&#x10e;" glyph-name="Dcaron" horiz-adv-x="804" d="M449 700T532 653T663 526T712 350Q712 255 664 175T532 47T352 0H106V700H352Q449 700 532 653ZM168 640V60H352Q433 60 501 99T609 205T649 350Q649 428 609 495T501 601T352 640H168ZM354
766H292L169 900H238L323 805L407 900H476L354 766Z" />
<glyph unicode="&#x10f;" glyph-name="dcaron" horiz-adv-x="699" d="M634 709T646 697T658 669Q658 644 641 618T578 591Q601 609 611 628Q596 630 586 641T576 669Q576 685 588 697T617 709Q634 709 646 697ZM506 0H451V42Q423 19 384 6T303 -8Q190 -8 132 53T73
247Q73 378 132 443T304 508Q346 508 379 498T446 465V700H506V0ZM135 450T135 247Q135 147 175 98T310 49Q347 49 384 62T446 97V410Q420 430 384 440T309 450Q135 450 135 247Z" />
<glyph unicode="&#x110;" glyph-name="Dcroat" horiz-adv-x="843" d="M487 700T570 653T701 526T750 350Q750 255 702 175T570 47T390 0H145V325H23V375H145V700H390Q487 700 570 653ZM471 60T539 99T648 205T688 350Q688 428 648 495T540 601T390 640H207V375H328V325H207V60H390Q471
60 539 99Z" />
<glyph unicode="&#x111;" glyph-name="" horiz-adv-x="670" d="M628 589H506V0H451V42Q423 19 384 6T303 -8Q190 -8 132 53T73 247Q73 378 132 443T304 508Q346 508 379 498T446 465V589H323V639H446V700H506V639H628V589ZM446 410Q420 430 384 440T309 450Q135
450 135 247Q135 147 175 98T310 49Q347 49 384 62T446 97V410Z" />
<glyph unicode="&#x112;" glyph-name="Emacron" horiz-adv-x="579" d="M522 642H168V393H518V335H168V58H525V0H106V700H522V642ZM467 849H162V900H467V849Z" />
<glyph unicode="&#x113;" glyph-name="emacron" horiz-adv-x="630" d="M400 508T453 478T534 404T563 316Q563 279 540 255T472 231H141Q141 180 168 139T240 74T337 50Q379 50 415 60T481 97L524 54Q458 -8 339 -8Q269 -8 208 24T110 116T73 250Q73 320 107 379T201
473T331 508Q400 508 453 478ZM280 451T238 429T171 370T142 288H449Q472 288 484 300T496 332Q496 364 472 391T410 435T331 451Q280 451 238 429ZM482 649H177V700H482V649Z" />
<glyph unicode="&#x116;" glyph-name="Edotaccent" horiz-adv-x="579" d="M522 642H168V393H518V335H168V58H525V0H106V700H522V642ZM298 793T286 804T274 833Q274 850 286 862T315 874Q332 874 343 862T355 833Q355 816 344 805T315 793Q298 793 286 804Z" />
<glyph unicode="&#x117;" glyph-name="edotaccent" horiz-adv-x="630" d="M400 508T453 478T534 404T563 316Q563 279 540 255T472 231H141Q141 180 168 139T240 74T337 50Q379 50 415 60T481 97L524 54Q458 -8 339 -8Q269 -8 208 24T110 116T73 250Q73 320 107
379T201 473T331 508Q400 508 453 478ZM280 451T238 429T171 370T142 288H449Q472 288 484 300T496 332Q496 364 472 391T410 435T331 451Q280 451 238 429ZM313 593T301 604T289 633Q289 650 301 662T330 674Q347 674 358 662T370 633Q370 616 359 605T330 593Q313
593 301 604Z" />
<glyph unicode="&#x118;" glyph-name="Eogonek" horiz-adv-x="579" d="M522 642H168V393H518V335H168V58H525V0H106V700H522V642ZM461 -34T461 -84Q461 -126 504 -126H527V-167H498Q463 -167 440 -147T417 -93Q417 -59 434 -38T484 0H523Q461 -34 461 -84Z" />
<glyph unicode="&#x119;" glyph-name="eogonek" horiz-adv-x="630" d="M563 279T540 255T472 231H141Q141 180 168 139T240 74T337 50Q379 50 415 60T481 97L524 54Q479 12 409 -2Q366 -33 366 -74Q366 -116 409 -116H432V-157H403Q368 -157 345 -137T322 -83Q322
-37 361 -7Q354 -8 339 -8Q269 -8 208 24T110 116T73 250Q73 320 107 379T201 473T331 508Q400 508 453 478T534 404T563 316Q563 279 540 255ZM449 288Q472 288 484 300T496 332Q496 364 472 391T410 435T331 451Q280 451 238 429T171 370T142 288H449Z" />
<glyph unicode="&#x11a;" glyph-name="Ecaron" horiz-adv-x="579" d="M522 642H168V393H518V335H168V58H525V0H106V700H522V642ZM346 766H284L161 900H230L315 805L399 900H468L346 766Z" />
<glyph unicode="&#x11b;" glyph-name="ecaron" horiz-adv-x="630" d="M400 508T453 478T534 404T563 316Q563 279 540 255T472 231H141Q141 180 168 139T240 74T337 50Q379 50 415 60T481 97L524 54Q458 -8 339 -8Q269 -8 208 24T110 116T73 250Q73 320 107 379T201
473T331 508Q400 508 453 478ZM280 451T238 429T171 370T142 288H449Q472 288 484 300T496 332Q496 364 472 391T410 435T331 451Q280 451 238 429ZM361 566H299L176 700H245L330 605L414 700H483L361 566Z" />
<glyph unicode="&#x11e;" glyph-name="Gbreve" horiz-adv-x="763" d="M502 709T559 689T664 630L621 587Q583 617 537 632T440 648Q359 648 291 608T182 500T142 350Q142 269 182 201T290 92T440 52Q527 52 601 100V334H663V69Q617 32 560 12T440 -9Q343 -9 260
39T129 169T80 350Q80 448 128 530T260 661T440 709Q502 709 559 689ZM555 850T518 818T429 785Q378 785 340 818T296 900H349Q356 870 377 852T429 834Q458 834 480 852T509 900H562Q555 850 518 818Z" />
<glyph unicode="&#x11f;" glyph-name="gbreve" horiz-adv-x="592" d="M237 -188T194 -174T108 -125L116 -76Q158 -108 199 -121T294 -134Q373 -134 408 -96T446 36Q414 12 380 2T304 -8Q192 -8 133 57T73 253Q73 385 131 446T303 508Q344 508 383 495T451 458V500H506V57Q506
-73 456 -130T294 -188Q237 -188 194 -174ZM346 50T383 61T446 92V403Q422 425 385 438T310 451Q216 451 176 402T135 253Q135 50 309 50Q346 50 383 61ZM428 650T391 618T302 585Q251 585 213 618T169 700H222Q229 670 250 652T302 634Q331 634 353 652T382 700H435Q428
650 391 618Z" />
<glyph unicode="&#x120;" glyph-name="Gdotaccent" horiz-adv-x="763" d="M502 709T559 689T664 630L621 587Q583 617 537 632T440 648Q359 648 291 608T182 500T142 350Q142 269 182 201T290 92T440 52Q527 52 601 100V334H663V69Q617 32 560 12T440 -9Q343 -9
260 39T129 169T80 350Q80 448 128 530T260 661T440 709Q502 709 559 689ZM412 793T400 804T388 833Q388 850 400 862T429 874Q446 874 457 862T469 833Q469 816 458 805T429 793Q412 793 400 804Z" />
<glyph unicode="&#x121;" glyph-name="gdotaccent" horiz-adv-x="592" d="M237 -188T194 -174T108 -125L116 -76Q158 -108 199 -121T294 -134Q373 -134 408 -96T446 36Q414 12 380 2T304 -8Q192 -8 133 57T73 253Q73 385 131 446T303 508Q344 508 383 495T451
458V500H506V57Q506 -73 456 -130T294 -188Q237 -188 194 -174ZM346 50T383 61T446 92V403Q422 425 385 438T310 451Q216 451 176 402T135 253Q135 50 309 50Q346 50 383 61ZM285 593T273 604T261 633Q261 650 273 662T302 674Q319 674 330 662T342 633Q342 616
331 605T302 593Q285 593 273 604Z" />
<glyph unicode="&#x122;" glyph-name="Gcommaaccent" horiz-adv-x="763" d="M502 709T559 689T664 630L621 587Q583 617 537 632T440 648Q359 648 291 608T182 500T142 350Q142 269 182 201T290 92T440 52Q527 52 601 100V334H663V69Q617 32 560 12T440 -9Q343
-9 260 39T129 169T80 350Q80 448 128 530T260 661T440 709Q502 709 559 689ZM413 -173T424 -153Q409 -151 399 -140T389 -113Q389 -96 401 -84T430 -72Q447 -72 459 -84T471 -113Q470 -141 452 -165T391 -190Q413 -173 424 -153Z" />
<glyph unicode="&#x123;" glyph-name="gcommaaccent" horiz-adv-x="592" d="M318 704T309 686Q324 684 334 673T344 646Q344 630 332 618T303 605Q286 605 274 617T262 646Q263 675 281 699T342 724Q318 704 309 686ZM344 508T383 495T451 458V500H506V57Q506
-64 459 -117T301 -170Q241 -170 196 -160T108 -125L116 -76Q159 -98 200 -107T294 -116Q351 -115 382 -101T429 -51T446 48Q395 -1 304 -3Q192 -3 133 59T73 250Q73 383 131 445T303 508Q344 508 383 495ZM216 451T176 402T135 253Q135 157 176 106T309 55Q344
55 381 68T446 106V403Q422 425 385 438T310 451Q216 451 176 402Z" />
<glyph unicode="&#x126;" glyph-name="Hbar" horiz-adv-x="780" d="M646 561H737V500H646V0H584V336H195V0H133V500H43V561H133V700H195V561H584V700H646V561ZM195 500V396H584V500H195Z" />
<glyph unicode="&#x127;" glyph-name="hbar" horiz-adv-x="655" d="M194 634H294V584H194V454Q226 478 268 493T355 508Q468 507 520 441T574 241V0H513V242Q513 350 475 400T343 451Q306 451 267 437T196 402V0H135V584H35V634H135V700H194V634Z" />
<glyph unicode="&#x12a;" glyph-name="Imacron" horiz-adv-x="275" d="M168 700V0H106V700H168ZM290 849H-15V900H290V849Z" />
<glyph unicode="&#x12b;" glyph-name="imacron" horiz-adv-x="237" d="M150 0H91V500H150V0ZM273 649H-32V700H273V649Z" />
<glyph unicode="&#x12e;" glyph-name="Iogonek" horiz-adv-x="275" d="M168 700V0H106V700H168ZM106 -34T106 -84Q106 -126 149 -126H172V-167H143Q108 -167 85 -147T62 -93Q62 -59 79 -38T129 0H168Q106 -34 106 -84Z" />
<glyph unicode="&#x12f;" glyph-name="iogonek" horiz-adv-x="237" d="M150 0H91V500H150V0ZM104 593T92 604T80 633Q80 650 92 662T121 674Q138 674 149 662T161 633Q161 616 150 605T121 593Q104 593 92 604ZM88 -34T88 -84Q88 -126 131 -126H154V-167H125Q90
-167 67 -147T44 -93Q44 -59 61 -38T111 0H150Q88 -34 88 -84Z" />
<glyph unicode="&#x130;" glyph-name="Idot" horiz-adv-x="275" d="M168 700V0H106V700H168ZM121 793T109 804T97 833Q97 850 109 862T138 874Q155 874 166 862T178 833Q178 816 167 805T138 793Q121 793 109 804Z" />
<glyph unicode="&#x131;" glyph-name="dotlessi" horiz-adv-x="237" d="M150 0H91V500H150V0Z" />
<glyph unicode="&#x132;" glyph-name="IJ" horiz-adv-x="712" d="M168 700V0H106V700H168ZM606 287Q606 193 568 127T462 26T309 -9H284V53H310Q378 52 430 78T513 158T543 287V700H606V287Z" />
<glyph unicode="&#x133;" glyph-name="ij" horiz-adv-x="462" d="M146 655T157 644T168 616Q168 600 157 589T130 578Q114 578 103 589T91 616Q91 632 102 643T130 655Q146 655 157 644ZM354 655T365 644T376 616Q376 600 365 589T338 578Q322 578 311 589T299
616Q299 633 310 644T338 655Q354 655 365 644ZM160 0H101V500H160V0ZM368 -28Q367 -95 332 -135T229 -174H205V-119H229Q268 -119 288 -95T308 -28V500H368V-28Z" />
<glyph unicode="&#x136;" glyph-name="Kcommaaccent" horiz-adv-x="637" d="M317 431L593 0H520L275 383L169 261V0H106V700H169V346L478 700H552L317 431ZM290 -173T301 -153Q286 -151 276 -140T266 -113Q266 -96 278 -84T307 -72Q324 -72 336 -84T348 -113Q347
-141 329 -165T268 -190Q290 -173 301 -153Z" />
<glyph unicode="&#x137;" glyph-name="kcommaaccent" horiz-adv-x="557" d="M152 700V271L384 500H464L278 311L511 0H439L236 266L152 184V0H91V700H152ZM292 -82T304 -94T316 -123Q316 -150 298 -175T236 -200Q257 -185 269 -163Q254 -160 245 -149T235 -123Q235
-106 246 -94T275 -82Q292 -82 304 -94Z" />
<glyph unicode="&#x139;" glyph-name="Lacute" horiz-adv-x="553" d="M168 59H509V0H106V700H168V59ZM164 775H107L175 900H257L164 775Z" />
<glyph unicode="&#x13a;" glyph-name="lacute" horiz-adv-x="232" d="M150 700V0H91V700H150ZM147 775H90L158 900H240L147 775Z" />
<glyph unicode="&#x13b;" glyph-name="Lcommaaccent" horiz-adv-x="553" d="M168 59H509V0H106V700H169L168 59ZM323 -85T335 -97T347 -126Q346 -155 328 -179T267 -204Q289 -186 300 -166Q285 -164 275 -153T265 -126Q265 -109 277 -97T306 -85Q323 -85 335 -97Z" />
<glyph unicode="&#x13c;" glyph-name="lcommaaccent" horiz-adv-x="232" d="M150 700V0H91V700H150ZM105 -173T116 -153Q101 -151 91 -140T81 -113Q81 -96 93 -84T122 -72Q139 -72 151 -84T163 -113Q162 -141 144 -165T83 -190Q105 -173 116 -153Z" />
<glyph unicode="&#x13d;" glyph-name="Lcaron" horiz-adv-x="553" d="M487 709T498 698T510 669Q510 644 493 618T430 591Q455 609 463 628Q449 630 439 641T429 669Q429 686 441 697T470 709Q487 709 498 698ZM168 59H509V0H106V700H169L168 59Z" />
<glyph unicode="&#x13e;" glyph-name="lcaron" horiz-adv-x="380" d="M317 709T329 697T341 669Q341 644 324 618T261 591Q284 609 294 628Q279 630 270 641T260 669Q260 686 271 697T300 709Q317 709 329 697ZM182 0H123V700H182V0Z" />
<glyph unicode="&#x13f;" glyph-name="Ldot" horiz-adv-x="553" d="M168 59H509V0H106V700H169L168 59ZM350 273T338 285T326 313Q326 330 338 342T367 354Q384 354 396 342T408 313Q408 296 396 285T367 273Q350 273 338 285Z" />
<glyph unicode="&#x140;" glyph-name="ldot" horiz-adv-x="378" d="M182 700V0H123V700H182ZM274 273T262 284T250 313Q250 330 262 342T291 354Q308 354 320 342T332 313Q332 296 320 285T291 273Q274 273 262 284Z" />
<glyph unicode="&#x141;" glyph-name="Lslash" horiz-adv-x="644" d="M260 393L396 491V423L260 325V59H600V0H198V280L106 214V282L198 348V700H260V393Z" />
<glyph unicode="&#x142;" glyph-name="lslash" horiz-adv-x="354" d="M209 387L301 456V389L209 319V0H149V277L56 210V278L149 345V700H209V387Z" />
<glyph unicode="&#x143;" glyph-name="Nacute" horiz-adv-x="745" d="M576 100V700H638V0H569L168 601V0H106V700H176L576 100ZM399 775H342L410 900H492L399 775Z" />
<glyph unicode="&#x144;" glyph-name="nacute" horiz-adv-x="607" d="M464 242Q464 349 426 400T296 451Q259 451 219 437T148 402V0H86V500H146V454Q178 478 220 493T306 508Q423 508 474 440T526 241V0H464V242ZM328 575H271L339 700H421L328 575Z" />
<glyph unicode="&#x145;" glyph-name="Ncommaaccent" horiz-adv-x="745" d="M576 100V700H638V0H569L168 601V0H106V700H176L576 100ZM357 -173T368 -153Q353 -151 343 -140T333 -113Q333 -96 345 -84T374 -72Q391 -72 403 -84T415 -113Q414 -141 396 -165T335
-190Q357 -173 368 -153Z" />
<glyph unicode="&#x146;" glyph-name="ncommaaccent" horiz-adv-x="607" d="M464 242Q464 349 426 400T296 451Q259 451 219 437T148 402V0H86V500H146V454Q178 478 220 493T306 508Q423 508 474 440T526 241V0H464V242ZM286 -173T297 -153Q282 -151 272 -140T262
-113Q262 -96 274 -84T303 -72Q320 -72 332 -84T344 -113Q343 -141 325 -165T264 -190Q286 -173 297 -153Z" />
<glyph unicode="&#x147;" glyph-name="Ncaron" horiz-adv-x="745" d="M576 100V700H638V0H569L168 601V0H106V700H176L576 100ZM404 766H342L219 900H288L373 805L457 900H526L404 766Z" />
<glyph unicode="&#x148;" glyph-name="ncaron" horiz-adv-x="607" d="M464 242Q464 349 426 400T296 451Q259 451 219 437T148 402V0H86V500H146V454Q178 478 220 493T306 508Q423 508 474 440T526 241V0H464V242ZM333 566H271L148 700H217L302 605L386 700H455L333 566Z" />
<glyph unicode="&#x14a;" glyph-name="Eng" horiz-adv-x="745" d="M638 116Q638 22 600 -45T495 -146T342 -180H318V-119H343Q418 -119 476 -83T558 17L168 601V0H106V700H176L576 101V700H638V116Z" />
<glyph unicode="&#x14b;" glyph-name="eng" horiz-adv-x="607" d="M526 -94T490 -133T387 -172Q374 -172 367 -171V-117Q415 -120 439 -99T464 -37V241Q464 348 428 400T297 452Q261 452 221 439T148 403V0H86V500H146V454Q182 478 224 493T310 508Q426 508 476
439T526 241V-30Q526 -94 490 -133Z" />
<glyph unicode="&#x14c;" glyph-name="Omacron" horiz-adv-x="880" d="M537 709T620 661T751 531T800 350Q800 252 752 170T620 39T440 -9Q343 -9 260 39T129 169T80 350Q80 448 128 530T260 661T440 709Q537 709 620 661ZM359 648T291 608T182 500T142 350Q142
269 182 201T290 92T440 52Q521 52 589 92T698 200T738 350Q738 431 698 499T590 608T440 648Q359 648 291 608ZM592 849H287V900H592V849Z" />
<glyph unicode="&#x14d;" glyph-name="omacron" horiz-adv-x="662" d="M401 508T460 474T555 380T590 250Q590 179 555 120T461 27T331 -8Q261 -8 202 26T108 120T73 250Q73 320 108 379T202 473T331 508Q401 508 460 474ZM277 448T232 422T161 350T134 250Q134
196 160 151T232 79T331 52Q385 52 430 78T502 150T529 250Q529 304 503 349T431 421T331 448Q277 448 232 422ZM482 649H177V700H482V649Z" />
<glyph unicode="&#x150;" glyph-name="Ohungarumlaut" horiz-adv-x="880" d="M537 709T620 661T751 531T800 350Q800 252 752 170T620 39T440 -9Q343 -9 260 39T129 169T80 350Q80 448 128 530T260 661T440 709Q537 709 620 661ZM359 648T291 608T182 500T142
350Q142 269 182 201T290 92T440 52Q521 52 589 92T698 200T738 350Q738 431 698 499T590 608T440 648Q359 648 291 608ZM375 775H318L386 900H468L375 775ZM507 775H450L518 900H600L507 775Z" />
<glyph unicode="&#x151;" glyph-name="ohungarumlaut" horiz-adv-x="662" d="M401 508T460 474T555 380T590 250Q590 179 555 120T461 27T331 -8Q261 -8 202 26T108 120T73 250Q73 320 108 379T202 473T331 508Q401 508 460 474ZM277 448T232 422T161 350T134
250Q134 196 160 151T232 79T331 52Q385 52 430 78T502 150T529 250Q529 304 503 349T431 421T331 448Q277 448 232 422ZM265 575H208L276 700H358L265 575ZM397 575H340L408 700H490L397 575Z" />
<glyph unicode="&#x152;" glyph-name="OE" horiz-adv-x="1092" d="M537 709T619 661V700H1038V639H681V394H1038V334H681V61H1038V0H619V39Q537 -9 440 -9Q343 -9 260 39T129 169T80 350Q80 448 128 530T260 661T440 709Q537 709 619 661ZM359 648T291 608T182
500T142 350Q142 269 182 201T290 92T440 52Q490 52 536 67T619 112V588Q581 617 536 632T440 648Q359 648 291 608Z" />
<glyph unicode="&#x153;" glyph-name="oe" horiz-adv-x="1096" d="M407 508T469 466T560 357Q588 424 650 466T788 508Q861 508 915 478T999 403T1029 315Q1029 278 1006 255T939 231H598Q598 182 624 141T694 76T791 52Q851 52 891 65T957 108L999 65Q965 27
914 10T791 -8Q714 -8 651 33T560 142Q532 75 470 34T331 -8Q261 -8 202 26T108 120T73 250Q73 320 107 379T201 473T331 508Q407 508 469 466ZM739 449T697 428T629 371T599 291H916Q938 291 950 302T963 332Q963 357 942 384T881 430T788 449Q739 449 697 428ZM277
448T232 422T161 350T134 250Q134 196 160 151T232 79T331 52Q385 52 430 78T502 150T529 250Q529 304 503 349T431 421T331 448Q277 448 232 422Z" />
<glyph unicode="&#x154;" glyph-name="Racute" horiz-adv-x="660" d="M405 700T453 676T527 608T554 505Q554 426 506 375T378 313L580 0H508L308 310H168V0H106V700H342Q405 700 453 676ZM168 640V370H341Q407 370 449 407T491 505Q491 565 448 602T341 640H168ZM332
775H275L343 900H425L332 775Z" />
<glyph unicode="&#x155;" glyph-name="racute" horiz-adv-x="487" d="M387 507T442 469L398 425Q358 452 309 452Q266 452 225 428T148 362V0H86V500H146V417Q180 458 227 482T325 507Q387 507 442 469ZM292 575H235L303 700H385L292 575Z" />
<glyph unicode="&#x156;" glyph-name="Rcommaaccent" horiz-adv-x="660" d="M405 700T453 676T527 608T554 505Q554 426 506 375T378 313L580 0H508L308 310H168V0H106V700H342Q405 700 453 676ZM168 640V370H341Q407 370 449 407T491 505Q491 565 448 602T341
640H168ZM344 -85T356 -97T368 -126Q368 -154 350 -179T288 -204Q312 -185 321 -166Q307 -164 297 -153T287 -126Q287 -109 299 -97T328 -85Q344 -85 356 -97Z" />
<glyph unicode="&#x157;" glyph-name="rcommaaccent" horiz-adv-x="487" d="M387 507T442 469L398 425Q358 452 309 452Q266 452 225 428T148 362V0H86V500H146V417Q180 458 227 482T325 507Q387 507 442 469ZM241 -173T252 -153Q237 -151 227 -140T217 -113Q217
-96 229 -84T258 -72Q275 -72 287 -84T299 -113Q298 -141 280 -165T219 -190Q241 -173 252 -153Z" />
<glyph unicode="&#x158;" glyph-name="Rcaron" horiz-adv-x="660" d="M405 700T453 676T527 608T554 505Q554 426 506 375T378 313L580 0H508L308 310H168V0H106V700H342Q405 700 453 676ZM168 640V370H341Q407 370 449 407T491 505Q491 565 448 602T341 640H168ZM337
766H275L152 900H221L306 805L390 900H459L337 766Z" />
<glyph unicode="&#x159;" glyph-name="rcaron" horiz-adv-x="487" d="M387 507T442 469L398 425Q358 452 309 452Q266 452 225 428T148 362V0H86V500H146V417Q180 458 227 482T325 507Q387 507 442 469ZM297 566H235L112 700H181L266 605L350 700H419L297 566Z" />
<glyph unicode="&#x15a;" glyph-name="Sacute" horiz-adv-x="522" d="M199 -9T145 11T54 72L93 116Q123 83 166 67T256 50Q297 50 332 66T389 112T411 181Q411 237 382 270T287 325L243 340Q150 371 104 414T58 526Q58 585 86 626T162 689T262 710Q363 710 423
652L385 609Q362 629 330 639T262 650Q205 650 164 618T122 527Q122 481 159 449T264 394L314 377Q392 350 432 303T472 181Q472 123 442 80T363 14T257 -9Q199 -9 145 11ZM286 775H229L297 900H379L286 775Z" />
<glyph unicode="&#x15b;" glyph-name="sacute" horiz-adv-x="410" d="M241 509T271 499T334 465L294 425Q249 450 210 449Q175 449 149 431T122 380Q122 348 141 327T209 293Q291 269 325 232T360 130Q360 69 315 30T202 -9Q123 -9 50 59L89 98Q117 75 147 63T202
51Q244 51 272 74T300 133Q300 171 277 195T198 237Q129 255 95 288T61 377Q61 416 81 446T133 492T204 509Q241 509 271 499ZM233 575H176L244 700H326L233 575Z" />
<glyph unicode="&#x15e;" glyph-name="Scedilla" horiz-adv-x="522" d="M472 126T446 85T375 20T277 -8V-43H286Q321 -43 341 -64T361 -115Q361 -145 340 -167T283 -189H197V-148H279Q298 -148 307 -138T317 -115Q317 -100 308 -90T279 -80H237V-8Q183 -5 135
15T54 72L93 116Q123 83 166 67T256 50Q297 50 332 66T389 112T411 181Q411 237 382 270T287 325L243 340Q150 371 104 414T58 526Q58 585 86 626T162 689T262 710Q363 710 423 652L385 609Q362 629 330 639T262 650Q205 650 164 618T122 527Q122 481 159 449T264
394L314 377Q392 350 432 303T472 181Q472 126 446 85Z" />
<glyph unicode="&#x15f;" glyph-name="scedilla" horiz-adv-x="410" d="M360 77T324 39T230 -7V-43H239Q274 -43 294 -64T314 -115Q314 -145 293 -167T236 -189H150V-148H232Q251 -148 260 -138T270 -115Q270 -100 261 -90T232 -80H190V-9Q118 -4 50 59L89 98Q117
75 147 63T202 51Q244 51 272 74T300 133Q300 171 277 195T198 237Q129 255 95 288T61 377Q61 416 81 446T133 492T204 509Q241 509 271 499T334 465L294 425Q249 450 210 449Q175 449 149 431T122 380Q122 348 141 327T209 293Q291 269 325 232T360 130Q360 77
324 39Z" />
<glyph unicode="&#x160;" glyph-name="Scaron" horiz-adv-x="522" d="M199 -9T145 11T54 72L93 116Q123 83 166 67T256 50Q297 50 332 66T389 112T411 181Q411 237 382 270T287 325L243 340Q150 371 104 414T58 526Q58 585 86 626T162 689T262 710Q363 710 423
652L385 609Q362 629 330 639T262 650Q205 650 164 618T122 527Q122 481 159 449T264 394L314 377Q392 350 432 303T472 181Q472 123 442 80T363 14T257 -9Q199 -9 145 11ZM291 766H229L106 900H175L260 805L344 900H413L291 766Z" />
<glyph unicode="&#x161;" glyph-name="scaron" horiz-adv-x="410" d="M241 509T271 499T334 465L294 425Q249 450 210 449Q175 449 149 431T122 380Q122 348 141 327T209 293Q291 269 325 232T360 130Q360 69 315 30T202 -9Q123 -9 50 59L89 98Q117 75 147 63T202
51Q244 51 272 74T300 133Q300 171 277 195T198 237Q129 255 95 288T61 377Q61 416 81 446T133 492T204 509Q241 509 271 499ZM238 566H176L53 700H122L207 605L291 700H360L238 566Z" />
<glyph unicode="&#x162;" glyph-name="uni0162" horiz-adv-x="577" d="M308 0V-43H317Q352 -43 372 -64T392 -115Q392 -145 371 -167T314 -189H228V-148H310Q329 -148 338 -138T348 -115Q348 -100 339 -90T310 -80H268V0H258V641H44V700H534V642H320V0H308Z" />
<glyph unicode="&#x163;" glyph-name="uni0163" horiz-adv-x="363" d="M183 500H313V442H183V109Q183 80 205 63T258 46H313V-8H264Q244 -8 222 -5V-27H232Q266 -27 285 -48T305 -99Q305 -129 284 -150T228 -172H143V-133H225Q244 -133 253 -123T262 -99Q262 -84
253 -74T225 -64H183V9Q155 23 139 49T122 109V442H50V500H122V627H183V500Z" />
<glyph unicode="&#x164;" glyph-name="Tcaron" horiz-adv-x="577" d="M534 642H320V0H258V641H44V700H534V642ZM323 766H261L138 900H207L292 805L376 900H445L323 766Z" />
<glyph unicode="&#x165;" glyph-name="tcaron" horiz-adv-x="451" d="M393 709T405 698T417 669Q416 640 398 616T337 591Q360 609 370 628Q355 630 345 641T335 669Q335 685 347 697T376 709Q393 709 405 698ZM183 500H313V442H183V109Q183 80 205 63T258 46H313V-8H258Q199
-8 161 24T122 109V442H50V500H122V627H183V500Z" />
<glyph unicode="&#x166;" glyph-name="Tbar" horiz-adv-x="577" d="M534 642H320V407H442V356H320V0H258V356H137V407H258V641H44V700H534V642Z" />
<glyph unicode="&#x167;" glyph-name="tbar" horiz-adv-x="363" d="M183 442V315H312V265H183V109Q183 80 205 63T258 46H313V-8H258Q199 -8 161 24T122 109V265H50V315H122V442H50V500H122V627H183V500H313V442H183Z" />
<glyph unicode="&#x16a;" glyph-name="Umacron" horiz-adv-x="753" d="M655 700V258Q655 187 619 126T520 28T380 -9Q303 -9 241 27T142 125T106 258V700H170V264Q170 206 198 158T274 81T380 52Q438 52 486 80T563 157T591 264V700H655ZM533 849H228V900H533V849Z" />
<glyph unicode="&#x16b;" glyph-name="umacron" horiz-adv-x="616" d="M530 0H470V62Q433 28 387 10T290 -8Q182 -8 132 59T81 259V500H143V259Q143 150 179 100T306 49Q347 49 389 66T469 115V500H530V0ZM458 649H153V700H458V649Z" />
<glyph unicode="&#x16e;" glyph-name="Uring" horiz-adv-x="753" d="M655 700V258Q655 187 619 126T520 28T380 -9Q303 -9 241 27T142 125T106 258V700H170V264Q170 206 198 158T274 81T380 52Q438 52 486 80T563 157T591 264V700H655ZM423 942T453 912T483 841Q483
799 453 770T381 740Q339 740 310 769T280 841Q280 882 309 912T381 942Q423 942 453 912ZM360 893T345 878T330 841Q330 819 344 804T381 789Q403 789 418 804T433 841Q433 862 418 877T381 893Q360 893 345 878Z" />
<glyph unicode="&#x16f;" glyph-name="uring" horiz-adv-x="616" d="M530 0H470V62Q433 28 387 10T290 -8Q182 -8 132 59T81 259V500H143V259Q143 150 179 100T306 49Q347 49 389 66T469 115V500H530V0ZM348 742T378 712T408 641Q408 599 378 570T306 540Q264
540 235 569T205 641Q205 682 234 712T306 742Q348 742 378 712ZM285 693T270 678T255 641Q255 619 269 604T306 589Q328 589 343 604T358 641Q358 662 343 677T306 693Q285 693 270 678Z" />
<glyph unicode="&#x170;" glyph-name="Uhungarumlaut" horiz-adv-x="753" d="M655 700V258Q655 187 619 126T520 28T380 -9Q303 -9 241 27T142 125T106 258V700H170V264Q170 206 198 158T274 81T380 52Q438 52 486 80T563 157T591 264V700H655ZM316 775H259L327
900H409L316 775ZM448 775H391L459 900H541L448 775Z" />
<glyph unicode="&#x171;" glyph-name="uhungarumlaut" horiz-adv-x="616" d="M530 0H470V62Q433 28 387 10T290 -8Q182 -8 132 59T81 259V500H143V259Q143 150 179 100T306 49Q347 49 389 66T469 115V500H530V0ZM241 575H184L252 700H334L241 575ZM373 575H316L384
700H466L373 575Z" />
<glyph unicode="&#x172;" glyph-name="Uogonek" horiz-adv-x="753" d="M655 700V258Q655 173 606 105T476 7Q429 -24 429 -68Q429 -110 472 -110H495V-150H466Q431 -150 408 -130T385 -76Q385 -34 417 -7Q393 -9 380 -9Q303 -9 241 27T142 125T106 258V700H170V264Q170
206 198 158T274 81T380 52Q438 52 486 80T563 157T591 264V700H655Z" />
<glyph unicode="&#x173;" glyph-name="uogonek" horiz-adv-x="616" d="M534 -126V-167H505Q470 -167 447 -147T424 -93Q424 -59 441 -38T491 0H470V62Q433 28 387 10T290 -8Q182 -8 132 59T81 259V500H143V259Q143 150 179 100T306 49Q347 49 389 66T469 115V500H530V0Q468
-34 468 -84Q468 -126 511 -126H534Z" />
<glyph unicode="&#x174;" glyph-name="Wcircumflex" horiz-adv-x="1066" d="M788 0H719L533 603L347 0H278L44 700H108L313 98L497 700H569L753 98L958 700H1023L788 0ZM687 766H618L533 862L448 766H379L502 900H564L687 766Z" />
<glyph unicode="&#x175;" glyph-name="wcircumflex" horiz-adv-x="830" d="M552 0L415 412L278 0H215L46 500H105L246 88L384 500H447L585 88L725 500H785L615 0H552ZM569 566H500L415 662L330 566H261L384 700H446L569 566Z" />
<glyph unicode="&#x176;" glyph-name="Ycircumflex" horiz-adv-x="668" d="M365 294V0H303V294L44 700H112L334 353L557 700H625L365 294ZM488 766H419L334 862L249 766H180L303 900H365L488 766Z" />
<glyph unicode="&#x177;" glyph-name="ycircumflex" horiz-adv-x="580" d="M508 41Q508 -80 454 -134T283 -188Q226 -188 182 -174T97 -128L106 -79Q147 -109 188 -121T283 -134Q370 -134 409 -98T449 27V46Q417 22 376 7T291 -8Q177 -8 123 57T69 258V500H130V258Q130
150 168 100T299 50Q336 50 375 63T446 97V500H508V41ZM443 566H374L289 662L204 566H135L258 700H320L443 566Z" />
<glyph unicode="&#x178;" glyph-name="Ydieresis" horiz-adv-x="668" d="M365 294V0H303V294L44 700H112L334 353L557 700H625L365 294ZM213 780T201 792T189 821Q189 838 201 849T230 861Q247 861 258 850T270 821Q270 804 259 792T230 780Q213 780 201 792ZM421
780T409 792T397 821Q397 838 409 849T438 861Q455 861 466 850T478 821Q478 804 467 792T438 780Q421 780 409 792Z" />
<glyph unicode="&#x179;" glyph-name="Zacute" horiz-adv-x="576" d="M519 641L124 58H522V0H53V59L449 642H66V700H519V641ZM319 775H262L330 900H412L319 775Z" />
<glyph unicode="&#x17a;" glyph-name="zacute" horiz-adv-x="445" d="M396 0H50V53L316 442H63V500H392V445L126 58H396V0ZM249 575H192L260 700H342L249 575Z" />
<glyph unicode="&#x17b;" glyph-name="Zdotaccent" horiz-adv-x="576" d="M519 641L124 58H522V0H53V59L449 642H66V700H519V641ZM276 793T264 804T252 833Q252 850 264 862T293 874Q310 874 321 862T333 833Q333 816 322 805T293 793Q276 793 264 804Z" />
<glyph unicode="&#x17c;" glyph-name="zdotaccent" horiz-adv-x="445" d="M396 0H50V53L316 442H63V500H392V445L126 58H396V0ZM206 593T194 604T182 633Q182 650 194 662T223 674Q240 674 251 662T263 633Q263 616 252 605T223 593Q206 593 194 604Z" />
<glyph unicode="&#x17d;" glyph-name="Zcaron" horiz-adv-x="576" d="M519 641L124 58H522V0H53V59L449 642H66V700H519V641ZM324 766H262L139 900H208L293 805L377 900H446L324 766Z" />
<glyph unicode="&#x17e;" glyph-name="zcaron" horiz-adv-x="445" d="M396 0H50V53L316 442H63V500H392V445L126 58H396V0ZM254 566H192L69 700H138L223 605L307 700H376L254 566Z" />
<glyph unicode="&#x192;" glyph-name="florin" horiz-adv-x="360" d="M306 696H295Q264 696 247 686T220 650T205 579L197 500H288L283 440H193L137 -163H76L131 440H50L54 500H136L144 577Q152 666 184 708T289 750H311L306 696Z" />
<glyph unicode="&#x1cd;" glyph-name="uni01CD" horiz-adv-x="753" d="M710 0H644L549 220H205L109 0H44L342 700H412L710 0ZM230 282H524L377 627L230 282ZM408 766H346L223 900H292L377 805L461 900H530L408 766Z" />
<glyph unicode="&#x1ce;" glyph-name="uni01CE" horiz-adv-x="554" d="M378 509T433 452T488 293V0H433V53Q407 26 357 9T258 -9Q166 -9 115 37T63 169Q63 248 116 294T270 341Q353 341 427 302Q426 375 385 413T269 452Q165 452 110 410L85 457Q154 509 276 509Q378
509 433 452ZM196 284T160 253T124 168Q124 112 159 82T264 52Q302 52 349 67T427 106V247Q394 266 352 275T270 284Q196 284 160 253ZM308 566H246L123 700H192L277 605L361 700H430L308 566Z" />
<glyph unicode="&#x1cf;" glyph-name="uni01CF" horiz-adv-x="275" d="M168 700V0H106V700H168ZM169 766H107L-16 900H53L138 805L222 900H291L169 766Z" />
<glyph unicode="&#x1d0;" glyph-name="uni01D0" horiz-adv-x="237" d="M150 0H91V500H150V0ZM152 566H90L-33 700H36L121 605L205 700H274L152 566Z" />
<glyph unicode="&#x1d1;" glyph-name="uni01D1" horiz-adv-x="880" d="M537 709T620 661T751 531T800 350Q800 252 752 170T620 39T440 -9Q343 -9 260 39T129 169T80 350Q80 448 128 530T260 661T440 709Q537 709 620 661ZM359 648T291 608T182 500T142 350Q142
269 182 201T290 92T440 52Q521 52 589 92T698 200T738 350Q738 431 698 499T590 608T440 648Q359 648 291 608ZM471 766H409L286 900H355L440 805L524 900H593L471 766Z" />
<glyph unicode="&#x1d2;" glyph-name="uni01D2" horiz-adv-x="662" d="M401 508T460 474T555 380T590 250Q590 179 555 120T461 27T331 -8Q261 -8 202 26T108 120T73 250Q73 320 108 379T202 473T331 508Q401 508 460 474ZM277 448T232 422T161 350T134 250Q134
196 160 151T232 79T331 52Q385 52 430 78T502 150T529 250Q529 304 503 349T431 421T331 448Q277 448 232 422ZM361 566H299L176 700H245L330 605L414 700H483L361 566Z" />
<glyph unicode="&#x1d3;" glyph-name="uni01D3" horiz-adv-x="753" d="M655 700V258Q655 187 619 126T520 28T380 -9Q303 -9 241 27T142 125T106 258V700H170V264Q170 206 198 158T274 81T380 52Q438 52 486 80T563 157T591 264V700H655ZM412 766H350L227 900H296L381
805L465 900H534L412 766Z" />
<glyph unicode="&#x1d4;" glyph-name="uni01D4" horiz-adv-x="616" d="M530 0H470V62Q433 28 387 10T290 -8Q182 -8 132 59T81 259V500H143V259Q143 150 179 100T306 49Q347 49 389 66T469 115V500H530V0ZM337 566H275L152 700H221L306 605L390 700H459L337 566Z" />
<glyph unicode="&#x1d5;" glyph-name="uni01D5" horiz-adv-x="753" d="M655 700V258Q655 187 619 126T520 28T380 -9Q303 -9 241 27T142 125T106 258V700H170V264Q170 206 198 158T274 81T380 52Q438 52 486 80T563 157T591 264V700H655ZM260 780T248 792T236
821Q236 838 248 849T277 861Q294 861 305 850T317 821Q317 804 306 792T277 780Q260 780 248 792ZM468 780T456 792T444 821Q444 838 456 849T485 861Q502 861 513 850T525 821Q525 804 514 792T485 780Q468 780 456 792ZM533 926H228V977H533V926Z" />
<glyph unicode="&#x1d6;" glyph-name="uni01D6" horiz-adv-x="616" d="M530 0H470V62Q433 28 387 10T290 -8Q182 -8 132 59T81 259V500H143V259Q143 150 179 100T306 49Q347 49 389 66T469 115V500H530V0ZM185 580T173 592T161 621Q161 638 173 649T202 661Q219
661 230 650T242 621Q242 604 231 592T202 580Q185 580 173 592ZM393 580T381 592T369 621Q369 638 381 649T410 661Q427 661 438 650T450 621Q450 604 439 592T410 580Q393 580 381 592ZM458 718H153V769H458V718Z" />
<glyph unicode="&#x1d7;" glyph-name="uni01D7" horiz-adv-x="753" d="M655 700V258Q655 187 619 126T520 28T380 -9Q303 -9 241 27T142 125T106 258V700H170V264Q170 206 198 158T274 81T380 52Q438 52 486 80T563 157T591 264V700H655ZM260 780T248 792T236
821Q236 838 248 849T277 861Q294 861 305 850T317 821Q317 804 306 792T277 780Q260 780 248 792ZM468 780T456 792T444 821Q444 838 456 849T485 861Q502 861 513 850T525 821Q525 804 514 792T485 780Q468 780 456 792ZM407 889H350L418 1014H500L407 889Z"
/>
<glyph unicode="&#x1d8;" glyph-name="uni01D8" horiz-adv-x="616" d="M530 0H470V62Q433 28 387 10T290 -8Q182 -8 132 59T81 259V500H143V259Q143 150 179 100T306 49Q347 49 389 66T469 115V500H530V0ZM185 580T173 592T161 621Q161 638 173 649T202 661Q219
661 230 650T242 621Q242 604 231 592T202 580Q185 580 173 592ZM393 580T381 592T369 621Q369 638 381 649T410 661Q427 661 438 650T450 621Q450 604 439 592T410 580Q393 580 381 592ZM331 686H274L342 811H424L331 686Z" />
<glyph unicode="&#x1d9;" glyph-name="uni01D9" horiz-adv-x="753" d="M655 700V258Q655 187 619 126T520 28T380 -9Q303 -9 241 27T142 125T106 258V700H170V264Q170 206 198 158T274 81T380 52Q438 52 486 80T563 157T591 264V700H655ZM260 780T248 792T236
821Q236 838 248 849T277 861Q294 861 305 850T317 821Q317 804 306 792T277 780Q260 780 248 792ZM468 780T456 792T444 821Q444 838 456 849T485 861Q502 861 513 850T525 821Q525 804 514 792T485 780Q468 780 456 792ZM412 880H350L227 1014H296L381 919L465
1014H534L412 880Z" />
<glyph unicode="&#x1da;" glyph-name="uni01DA" horiz-adv-x="616" d="M530 0H470V62Q433 28 387 10T290 -8Q182 -8 132 59T81 259V500H143V259Q143 150 179 100T306 49Q347 49 389 66T469 115V500H530V0ZM185 580T173 592T161 621Q161 638 173 649T202 661Q219
661 230 650T242 621Q242 604 231 592T202 580Q185 580 173 592ZM393 580T381 592T369 621Q369 638 381 649T410 661Q427 661 438 650T450 621Q450 604 439 592T410 580Q393 580 381 592ZM337 677H275L152 811H221L306 716L390 811H459L337 677Z" />
<glyph unicode="&#x1db;" glyph-name="uni01DB" horiz-adv-x="753" d="M655 700V258Q655 187 619 126T520 28T380 -9Q303 -9 241 27T142 125T106 258V700H170V264Q170 206 198 158T274 81T380 52Q438 52 486 80T563 157T591 264V700H655ZM260 780T248 792T236
821Q236 838 248 849T277 861Q294 861 305 850T317 821Q317 804 306 792T277 780Q260 780 248 792ZM468 780T456 792T444 821Q444 838 456 849T485 861Q502 861 513 850T525 821Q525 804 514 792T485 780Q468 780 456 792ZM341 1014L409 889H351L259 1014H341Z"
/>
<glyph unicode="&#x1dc;" glyph-name="uni01DC" horiz-adv-x="616" d="M530 0H470V62Q433 28 387 10T290 -8Q182 -8 132 59T81 259V500H143V259Q143 150 179 100T306 49Q347 49 389 66T469 115V500H530V0ZM185 580T173 592T161 621Q161 638 173 649T202 661Q219
661 230 650T242 621Q242 604 231 592T202 580Q185 580 173 592ZM393 580T381 592T369 621Q369 638 381 649T410 661Q427 661 438 650T450 621Q450 604 439 592T410 580Q393 580 381 592ZM266 811L334 686H276L184 811H266Z" />
<glyph unicode="&#x218;" glyph-name="Scommaaccent" horiz-adv-x="522" d="M199 -9T145 11T54 72L93 116Q123 83 166 67T256 50Q297 50 332 66T389 112T411 181Q411 237 382 270T287 325L243 340Q150 371 104 414T58 526Q58 585 86 626T162 689T262 710Q363 710
423 652L385 609Q362 629 330 639T262 650Q205 650 164 618T122 527Q122 481 159 449T264 394L314 377Q392 350 432 303T472 181Q472 123 442 80T363 14T257 -9Q199 -9 145 11ZM242 -173T253 -153Q238 -151 228 -140T218 -113Q218 -96 230 -84T259 -72Q276 -72
288 -84T300 -113Q299 -141 281 -165T220 -190Q242 -173 253 -153Z" />
<glyph unicode="&#x219;" glyph-name="scommaaccent" horiz-adv-x="410" d="M241 509T271 499T334 465L294 425Q249 450 210 449Q175 449 149 431T122 380Q122 348 141 327T209 293Q291 269 325 232T360 130Q360 69 315 30T202 -9Q123 -9 50 59L89 98Q117 75 147
63T202 51Q244 51 272 74T300 133Q300 171 277 195T198 237Q129 255 95 288T61 377Q61 416 81 446T133 492T204 509Q241 509 271 499ZM195 -173T206 -153Q191 -151 181 -140T171 -113Q171 -96 183 -84T212 -72Q229 -72 241 -84T253 -113Q252 -141 234 -165T173
-190Q195 -173 206 -153Z" />
<glyph unicode="&#x21a;" glyph-name="uni021A" horiz-adv-x="577" d="M534 642H320V0H258V641H44V700H534V642ZM273 -173T284 -153Q269 -151 259 -140T249 -113Q249 -96 261 -84T290 -72Q307 -72 319 -84T331 -113Q330 -141 312 -165T251 -190Q273 -173 284 -153Z" />
<glyph unicode="&#x21b;" glyph-name="uni021B" horiz-adv-x="363" d="M183 500H313V442H183V109Q183 80 205 63T258 46H313V-8H258Q199 -8 161 24T122 109V442H50V500H122V627H183V500ZM205 -173T216 -153Q201 -151 191 -140T181 -113Q181 -96 193 -84T222 -72Q239
-72 251 -84T263 -113Q262 -141 244 -165T183 -190Q205 -173 216 -153Z" />
<glyph unicode="&#x2c6;" glyph-name="circumflex" horiz-adv-x="408" d="M358 566H289L204 662L119 566H50L173 700H235L358 566Z" />
<glyph unicode="&#x2c7;" glyph-name="caron" horiz-adv-x="407" d="M235 566H173L50 700H119L204 605L288 700H357L235 566Z" />
<glyph unicode="&#x2d8;" glyph-name="breve" horiz-adv-x="366" d="M309 650T272 618T183 585Q132 585 94 618T50 700H103Q110 670 131 652T183 634Q212 634 234 652T263 700H316Q309 650 272 618Z" />
<glyph unicode="&#x2d9;" glyph-name="dotaccent" horiz-adv-x="181" d="M74 593T62 604T50 633Q50 650 62 662T91 674Q108 674 119 662T131 633Q131 616 120 605T91 593Q74 593 62 604Z" />
<glyph unicode="&#x2da;" glyph-name="ring" horiz-adv-x="303" d="M193 700T223 671T253 600Q253 557 223 528T151 498Q109 498 80 527T50 600Q50 641 79 670T151 700Q193 700 223 671ZM130 651T115 636T100 600Q100 577 114 562T151 547Q173 547 188 562T203
600Q203 621 188 636T151 651Q130 651 115 636Z" />
<glyph unicode="&#x2db;" glyph-name="ogonek" horiz-adv-x="265" d="M104 -33T102 -81Q102 -125 146 -125H169V-166H140Q105 -166 82 -146T59 -92Q59 -58 76 -37T126 1H165Q104 -33 102 -81Z" />
<glyph unicode="&#x2dc;" glyph-name="tilde" horiz-adv-x="372" d="M322 631L299 608Q282 591 256 591Q230 591 205 606L160 633Q137 646 119 646Q103 646 92 635L50 593V653L79 682Q95 698 118 698Q144 698 171 682L216 656Q239 642 256 642Q273 642 286 655L322
691V631Z" />
<glyph unicode="&#x2dd;" glyph-name="hungarumlaut" horiz-adv-x="382" d="M107 575H50L118 700H200L107 575ZM239 575H182L250 700H332L239 575Z" />
<glyph unicode="&#x300;" glyph-name="gravecomb" horiz-adv-x="0" d="M-118 700L-50 575H-108L-200 700H-118Z" />
<glyph unicode="&#x301;" glyph-name="acutecomb" horiz-adv-x="0" d="M-143 575H-200L-132 700H-50L-143 575Z" />
<glyph unicode="&#x302;" glyph-name="uni0302" horiz-adv-x="0" d="M-50 566H-119L-204 662L-289 566H-358L-235 700H-173L-50 566Z" />
<glyph unicode="&#x303;" glyph-name="tildecomb" horiz-adv-x="0" d="M-50 631L-73 608Q-90 591 -116 591Q-142 591 -167 606L-212 633Q-235 646 -253 646Q-269 646 -280 635L-322 593V653L-293 682Q-277 698 -254 698Q-228 698 -201 682L-156 656Q-133 642 -116
642Q-99 642 -86 655L-50 691V631Z" />
<glyph unicode="&#x304;" glyph-name="uni0304" horiz-adv-x="0" d="M-50 649H-355V700H-50V649Z" />
<glyph unicode="&#x306;" glyph-name="uni0306" horiz-adv-x="0" d="M-57 650T-94 618T-183 585Q-234 585 -272 618T-316 700H-263Q-256 670 -235 652T-183 634Q-154 634 -132 652T-103 700H-50Q-57 650 -94 618Z" />
<glyph unicode="&#x307;" glyph-name="uni0307" horiz-adv-x="0" d="M-107 593T-119 604T-131 633Q-131 650 -119 662T-90 674Q-73 674 -62 662T-50 633Q-50 616 -61 605T-90 593Q-107 593 -119 604Z" />
<glyph unicode="&#x308;" glyph-name="uni0308" horiz-adv-x="0" d="M-315 580T-327 592T-339 621Q-339 638 -327 649T-298 661Q-281 661 -270 650T-258 621Q-258 604 -269 592T-298 580Q-315 580 -327 592ZM-107 580T-119 592T-131 621Q-131 638 -119 649T-90
661Q-73 661 -62 650T-50 621Q-50 604 -61 592T-90 580Q-107 580 -119 592Z" />
<glyph unicode="&#x30a;" glyph-name="uni030A" horiz-adv-x="0" d="M-110 742T-80 712T-50 641Q-50 599 -80 570T-152 540Q-194 540 -223 569T-253 641Q-253 682 -224 712T-152 742Q-110 742 -80 712ZM-173 693T-188 678T-203 641Q-203 619 -189 604T-152 589Q-130
589 -115 604T-100 641Q-100 662 -115 677T-152 693Q-173 693 -188 678Z" />
<glyph unicode="&#x30b;" glyph-name="uni030B" horiz-adv-x="0" d="M-275 575H-332L-264 700H-182L-275 575ZM-143 575H-200L-132 700H-50L-143 575Z" />
<glyph unicode="&#x30c;" glyph-name="uni030C" horiz-adv-x="0" d="M-172 566H-234L-357 700H-288L-203 605L-119 700H-50L-172 566Z" />
<glyph unicode="&#x326;" glyph-name="uni0326" horiz-adv-x="0" d="M-107 -173T-96 -153Q-111 -151 -121 -140T-131 -113Q-131 -96 -119 -84T-90 -72Q-73 -72 -61 -84T-49 -113Q-50 -141 -68 -165T-129 -190Q-107 -173 -96 -153Z" />
<glyph unicode="&#x327;" glyph-name="uni0327" horiz-adv-x="0" d="M-131 -43H-122Q-87 -43 -67 -64T-47 -115Q-47 -145 -68 -167T-125 -189H-211V-148H-129Q-110 -148 -101 -138T-91 -115Q-91 -100 -100 -90T-129 -80H-171V2H-131V-43Z" />
<glyph unicode="&#x328;" glyph-name="uni0328" horiz-adv-x="0" d="M-162 -33T-162 -83Q-162 -125 -119 -125H-96V-166H-125Q-160 -166 -183 -146T-206 -92Q-206 -58 -189 -37T-139 1H-100Q-162 -33 -162 -83Z" />
<glyph unicode="&#x394;" glyph-name="uni0394" horiz-adv-x="784" d="M741 0H44L359 700H426L741 0ZM134 61H651L393 636L134 61Z" />
<glyph unicode="&#x3a9;" glyph-name="uni03A9" horiz-adv-x="895" d="M544 709T627 661T758 531T807 350Q807 255 759 176T631 55H826V-6H494V56Q566 67 623 108T712 213T745 350Q745 431 705 499T597 608T447 648Q366 648 298 608T190 500T150 350Q150 277 183
214T273 108T401 55V-7H69V54H265Q185 96 136 175T87 350Q87 448 135 530T267 661T447 709Q544 709 627 661Z" />
<glyph unicode="&#x3bc;" glyph-name="uni03BC" horiz-adv-x="618" d="M533 0H474V62Q437 28 390 10T293 -8Q183 -8 144 69V-180H85V500H147V259Q147 152 185 101T309 50Q351 50 394 67T472 115V500H533V0Z" />
<glyph unicode="&#x3c0;" glyph-name="pi" horiz-adv-x="682" d="M522 134T555 92T635 51V-5Q556 -5 510 49T454 202L432 441H240V0H180V441H72V500H598V441H495L516 202Q522 134 555 92Z" />
<glyph unicode="&#x401;" glyph-name="uni0401" horiz-adv-x="579" d="M522 642H168V393H518V335H168V58H525V0H106V700H522V642ZM214 780T202 792T190 821Q190 838 202 849T231 861Q248 861 259 850T271 821Q271 804 260 792T231 780Q214 780 202 792ZM422 780T410
792T398 821Q398 838 410 849T439 861Q456 861 467 850T479 821Q479 804 468 792T439 780Q422 780 410 792Z" />
<glyph unicode="&#x410;" glyph-name="uni0410" horiz-adv-x="753" d="M710 0H644L549 220H205L109 0H44L342 700H412L710 0ZM230 282H524L377 627L230 282Z" />
<glyph unicode="&#x411;" glyph-name="uni0411" horiz-adv-x="617" d="M418 384T465 360T538 291T564 189Q564 131 538 87T464 18T355 -6H106V700H518V639H168V384H356Q418 384 465 360ZM417 55T459 92T502 189Q502 248 461 285T355 323H169V55H355Q417 55 459 92Z" />
<glyph unicode="&#x412;" glyph-name="uni0412" horiz-adv-x="644" d="M412 705T458 682T531 617T558 521Q558 468 532 428T461 364Q519 345 555 298T591 188Q591 132 564 88T489 19T386 -6H106V705H356Q412 705 458 682ZM170 645V388H344Q409 388 451 422T493
517Q493 577 451 611T344 645H170ZM170 328V54H376Q440 54 483 92T526 191Q526 252 483 290T376 328H170Z" />
<glyph unicode="&#x413;" glyph-name="uni0413" horiz-adv-x="574" d="M169 639V0H106V700H530V639H169Z" />
<glyph unicode="&#x414;" glyph-name="uni0414" horiz-adv-x="816" d="M666 59H733V-124H674V0H103V-124H44V59H79Q143 64 183 122T233 282L269 700H666V59ZM327 639L295 282Q288 205 265 148T202 59H604V639H327Z" />
<glyph unicode="&#x415;" glyph-name="uni0415" horiz-adv-x="579" d="M522 642H168V393H518V335H168V58H525V0H106V700H522V642Z" />
<glyph unicode="&#x416;" glyph-name="uni0416" horiz-adv-x="998" d="M882 0L637 383L530 261V0H469V261L362 383L118 0H44L320 431L85 700H159L469 346V700H530V346L840 700H914L679 431L955 0H882Z" />
<glyph unicode="&#x417;" glyph-name="uni0417" horiz-adv-x="556" d="M335 708T382 687T456 625T484 529Q484 468 449 424T356 361Q418 343 455 295T493 177Q493 90 432 40T275 -10Q212 -10 155 10T50 69L94 113Q130 83 176 67T273 51Q343 51 386 87T430 187Q430
252 384 290T257 330H175V387H247Q330 388 375 422T421 519Q421 579 379 613T271 647Q220 647 175 631T95 585L51 629Q99 667 156 687T277 708Q335 708 382 687Z" />
<glyph unicode="&#x418;" glyph-name="uni0418" horiz-adv-x="745" d="M638 0H576V601L176 1L106 0V700H168V100L569 700H638V0Z" />
<glyph unicode="&#x419;" glyph-name="uni0419" horiz-adv-x="745" d="M505 900Q498 850 461 818T372 785Q321 785 283 818T239 900H300Q306 876 326 860T372 844Q398 844 418 860T444 900H505ZM638 700V0H576V601L176 1L106 0V700H168V100L569 700H638Z" />
<glyph unicode="&#x41a;" glyph-name="uni041A" horiz-adv-x="637" d="M317 431L593 0H520L275 383L169 261V0H106V700H169V346L478 700H552L317 431Z" />
<glyph unicode="&#x41b;" glyph-name="uni041B" horiz-adv-x="747" d="M644 0H582V639H305L273 282Q266 193 235 128T155 27T44 -8V53Q110 53 155 114T211 282L247 700H644V0Z" />
<glyph unicode="&#x41c;" glyph-name="uni041C" horiz-adv-x="904" d="M798 0H736V614L452 258L168 614V0H106V700H176L452 349L728 700H798V0Z" />
<glyph unicode="&#x41d;" glyph-name="uni041D" horiz-adv-x="726" d="M619 0H557V336H168V0H106V700H168V396H557V700H619V0Z" />
<glyph unicode="&#x41e;" glyph-name="uni041E" horiz-adv-x="880" d="M537 709T620 661T751 531T800 350Q800 252 752 170T620 39T440 -9Q343 -9 260 39T129 169T80 350Q80 448 128 530T260 661T440 709Q537 709 620 661ZM359 648T291 608T182 500T142 350Q142
269 182 201T290 92T440 52Q521 52 589 92T698 200T738 350Q738 431 698 499T590 608T440 648Q359 648 291 608Z" />
<glyph unicode="&#x41f;" glyph-name="uni041F" horiz-adv-x="726" d="M619 0H557V639H168V0H106V700H619V0Z" />
<glyph unicode="&#x420;" glyph-name="uni0420" horiz-adv-x="622" d="M401 705T450 680T527 608T554 499Q554 406 496 350T338 294H168V0H106L107 705H337Q401 705 450 680ZM169 645V355H335Q405 355 448 394T492 500Q492 565 448 605T335 645H169Z" />
<glyph unicode="&#x421;" glyph-name="uni0421" horiz-adv-x="730" d="M515 709T572 689T677 630L634 587Q596 617 550 632T453 648Q371 648 303 608T195 500T155 350Q155 269 195 201T303 92T453 52Q503 52 549 67T633 112L677 70Q578 -9 453 -9Q356 -9 273 39T142
169T93 350Q93 448 141 530T273 661T453 709Q515 709 572 689Z" />
<glyph unicode="&#x422;" glyph-name="uni0422" horiz-adv-x="577" d="M320 639V0H258V639H44V700H534V639H320Z" />
<glyph unicode="&#x423;" glyph-name="uni0423" horiz-adv-x="668" d="M365 294V0H303V294L44 700H112L334 353L557 700H625L365 294Z" />
<glyph unicode="&#x424;" glyph-name="uni0424" horiz-adv-x="886" d="M474 622H609Q670 622 717 599T791 532T817 431Q817 344 761 292T610 239H474V0H412V239H276Q182 239 126 291T69 431Q69 488 95 531T168 598T277 622H412V700H474V622ZM278 562Q216 562 174
526T131 431Q131 372 172 336T278 299H412V562H278ZM474 562V299H608Q672 299 713 335T755 431Q755 489 713 525T608 562H474Z" />
<glyph unicode="&#x425;" glyph-name="uni0425" horiz-adv-x="646" d="M134 700L324 410L513 700H582L364 363L603 0H533L323 320L113 0H44L284 366L64 700H134Z" />
<glyph unicode="&#x426;" glyph-name="uni0426" horiz-adv-x="810" d="M731 -119H670V0H106V700H168V61H557V700H619V61H731V-119Z" />
<glyph unicode="&#x427;" glyph-name="uni0427" horiz-adv-x="680" d="M573 0H513V251Q481 226 427 209T318 192Q175 192 114 260T53 457V700H116V464Q116 392 134 346T198 277T324 253Q370 253 426 270T511 313V700H573V0Z" />
<glyph unicode="&#x428;" glyph-name="uni0428" horiz-adv-x="1118" d="M1011 0H106V700H168V61H528V700H590V61H949V700H1011V0Z" />
<glyph unicode="&#x429;" glyph-name="uni0429" horiz-adv-x="1202" d="M1011 61H1122V-119H1061V0H106V700H168V61H528V700H590V61H949V700H1011V61Z" />
<glyph unicode="&#x42a;" glyph-name="uni042A" horiz-adv-x="751" d="M526 384T573 359T646 290T672 188Q672 130 646 85T572 16T463 -9H214V639H99V700H277L276 384H464Q526 384 573 359ZM524 51T566 89T609 187Q609 247 568 285T462 323H277V51H462Q524 51 566 89Z" />
<glyph unicode="&#x42b;" glyph-name="uni042B" horiz-adv-x="852" d="M418 384T465 359T538 290T564 188Q564 130 538 85T464 16T355 -9H106V700H169L168 384H356Q418 384 465 359ZM746 0H684V700H746V0ZM416 51T458 89T501 187Q501 247 460 285T354 323H169V51H354Q416
51 458 89Z" />
<glyph unicode="&#x42c;" glyph-name="uni042C" horiz-adv-x="643" d="M418 384T465 359T538 290T564 188Q564 130 538 85T464 16T355 -9H106V700H169L168 384H356Q418 384 465 359ZM416 51T458 89T501 187Q501 247 460 285T354 323H169V51H354Q416 51 458 89Z" />
<glyph unicode="&#x42d;" glyph-name="uni042D" horiz-adv-x="730" d="M101 668T158 688T278 709Q375 709 458 661T589 531T638 350Q638 252 590 170T458 39T278 -9Q215 -9 158 11T54 69L105 107Q182 52 278 52Q354 52 419 87T525 184T572 321H224V382H572Q565
456 524 516T419 612T278 648Q176 648 96 587L54 630Q101 668 158 688Z" />
<glyph unicode="&#x42e;" glyph-name="uni042E" horiz-adv-x="1129" d="M326 472T375 547T504 665T676 709Q773 709 856 661T987 531T1036 350Q1036 252 988 170T856 39T676 -9Q583 -9 504 34T375 153T318 320H168V0H106V700H168V381H318Q326 472 375 547ZM758
52T826 92T934 200T974 350Q974 431 934 499T826 608T676 648Q595 648 527 608T419 500T379 350Q379 269 419 201T527 92T676 52Q758 52 826 92Z" />
<glyph unicode="&#x42f;" glyph-name="uni042F" horiz-adv-x="663" d="M557 705V0H496V315H355L153 0H80L286 318Q206 329 158 380T110 510Q110 598 168 651T321 705H557ZM258 645T215 608T172 510Q172 450 214 413T322 375H495V645H322Q258 645 215 608Z" />
<glyph unicode="&#x430;" glyph-name="uni0430" horiz-adv-x="554" d="M378 509T433 452T488 293V0H433V53Q407 26 357 9T258 -8Q166 -8 115 38T63 169Q63 247 116 293T267 340Q354 340 427 302Q426 375 385 413T269 452Q165 452 110 410L85 457Q154 509 276 509Q378
509 433 452ZM196 283T160 252T124 168Q124 112 159 82T264 52Q302 52 349 67T427 106V247Q394 266 352 275T270 284Q196 283 160 252Z" />
<glyph unicode="&#x431;" glyph-name="uni0431" horiz-adv-x="662" d="M574 714T534 682T428 649H328Q276 649 233 626T164 559T137 459V395Q162 445 215 476T331 508Q401 508 460 474T555 380T590 250Q590 179 555 120T461 27T331 -8Q261 -8 202 26T108 120T73
249V425Q73 513 107 576T197 671T321 703H428Q463 703 488 722T513 770H574Q574 714 534 682ZM277 448T232 421T161 348T134 249Q134 195 160 150T232 79T331 52Q385 52 430 78T502 150T529 250Q529 304 503 349T431 421T331 448Q277 448 232 421Z" />
<glyph unicode="&#x432;" glyph-name="uni0432" horiz-adv-x="512" d="M329 508T371 470T413 371Q413 334 396 305T349 259Q388 243 411 208T434 130Q434 69 390 31T275 -8H86V508H261Q329 508 371 470ZM148 449V286H257Q300 286 326 307T352 368Q352 407 326
428T257 449H148ZM148 225V52H271Q317 52 345 75T373 136Q373 176 344 200T272 225H148Z" />
<glyph unicode="&#x433;" glyph-name="uni0433" horiz-adv-x="457" d="M147 441V0H86V500H398V441H147Z" />
<glyph unicode="&#x434;" glyph-name="uni0434" horiz-adv-x="628" d="M520 60H569V-88H509V1H107V-88H46V60H73Q117 64 146 102T181 202L207 500H520V60ZM265 441L243 202Q231 103 187 60H459V441H265Z" />
<glyph unicode="&#x435;" glyph-name="uni0435" horiz-adv-x="630" d="M400 508T453 478T534 404T563 316Q563 279 540 255T472 231H141Q141 180 168 139T240 74T337 50Q379 50 415 60T481 97L524 54Q458 -8 339 -8Q269 -8 208 24T110 116T73 250Q73 320 107 379T201
473T331 508Q400 508 453 478ZM280 451T238 429T171 370T142 288H449Q472 288 484 300T496 332Q496 364 472 391T410 435T331 451Q280 451 238 429Z" />
<glyph unicode="&#x436;" glyph-name="uni0436" horiz-adv-x="871" d="M753 0L549 266L466 184V0H405V184L322 266L118 0H46L280 311L93 500H174L405 271V500H466V271L698 500H778L592 311L825 0H753Z" />
<glyph unicode="&#x437;" glyph-name="uni0437" horiz-adv-x="421" d="M283 509T325 474T368 379Q368 336 343 304T276 258Q320 246 347 211T375 126Q375 63 331 27T218 -9Q119 -9 47 48L89 90Q136 51 207 51Q255 51 283 73T312 136Q312 176 284 201T210 227H145V283H205Q253
283 281 305T309 367Q309 405 281 427T209 449Q143 449 95 411L47 447Q120 509 219 509Q283 509 325 474Z" />
<glyph unicode="&#x438;" glyph-name="uni0438" horiz-adv-x="570" d="M484 0H423V405L151 1L86 0V500H147V95L419 500H484V0Z" />
<glyph unicode="&#x439;" glyph-name="uni0439" horiz-adv-x="570" d="M403 700Q397 656 364 627T284 598Q239 598 206 627T165 700H198Q204 670 228 651T284 631Q316 631 340 650T371 700H403ZM484 500V0H423V405L151 1L86 0V500H147V95L419 500H484Z" />
<glyph unicode="&#x43a;" glyph-name="uni043A" horiz-adv-x="555" d="M150 184V0H90V500H150V271L382 500H463L276 311L509 0H437L234 266L150 184Z" />
<glyph unicode="&#x43b;" glyph-name="uni043B" horiz-adv-x="588" d="M502 0H442V441H250L228 202Q218 104 172 50T46 -5V51Q93 50 126 92T166 202L193 500H502V0Z" />
<glyph unicode="&#x43c;" glyph-name="uni043C" horiz-adv-x="700" d="M615 0H553V412L350 158L147 413V0H86V500H153L350 249L548 500H615V0Z" />
<glyph unicode="&#x43d;" glyph-name="uni043D" horiz-adv-x="564" d="M477 0H417V232H147V0H86V500H147V292H417V500H477V0Z" />
<glyph unicode="&#x43e;" glyph-name="uni043E" horiz-adv-x="662" d="M401 508T460 474T555 380T590 250Q590 179 555 120T461 27T331 -8Q261 -8 202 26T108 120T73 250Q73 320 108 379T202 473T331 508Q401 508 460 474ZM277 448T232 422T161 350T134 250Q134
196 160 151T232 79T331 52Q385 52 430 78T502 150T529 250Q529 304 503 349T431 421T331 448Q277 448 232 422Z" />
<glyph unicode="&#x43f;" glyph-name="uni043F" horiz-adv-x="568" d="M481 0H421V440H147V0H86V500H481V0Z" />
<glyph unicode="&#x440;" glyph-name="uni0440" horiz-adv-x="592" d="M402 508T461 446T520 250Q520 121 460 57T289 -8Q249 -7 215 3T147 37V-177H86V500H142V458Q169 481 208 494T289 508Q402 508 461 446ZM245 451T208 439T147 403V92Q171 73 208 62T283 50Q458
50 458 253Q458 353 417 402T283 451Q245 451 208 439Z" />
<glyph unicode="&#x441;" glyph-name="uni0441" horiz-adv-x="560" d="M376 509T417 494T492 452L449 410Q398 449 331 449Q277 449 232 423T160 351T133 251Q133 196 159 151T231 79T331 52Q398 52 449 91L491 48Q458 22 417 8T331 -7Q261 -7 202 27T108 121T73
251Q73 321 108 380T202 474T331 509Q376 509 417 494Z" />
<glyph unicode="&#x442;" glyph-name="uni0442" horiz-adv-x="442" d="M251 440V0H191V440H46V500H395V440H251Z" />
<glyph unicode="&#x443;" glyph-name="uni0443" horiz-adv-x="580" d="M508 41Q508 -80 454 -134T283 -188Q226 -188 182 -174T97 -128L106 -79Q147 -109 188 -121T283 -134Q370 -134 409 -98T449 27V46Q417 22 376 7T291 -8Q177 -8 123 57T69 258V500H130V258Q130
150 168 100T299 50Q336 50 375 63T446 97V500H508V41Z" />
<glyph unicode="&#x444;" glyph-name="uni0444" horiz-adv-x="951" d="M534 484T572 496T648 508Q879 508 879 253Q879 122 819 57T648 -8Q608 -8 574 3T506 37V-180H446V37Q412 14 378 3T304 -8Q192 -8 133 57T73 253Q73 385 131 446T303 508Q342 508 379 496T446
463V700H506V463Q534 484 572 496ZM422 425T385 438T310 451Q216 451 176 402T135 253Q135 50 309 50Q346 50 383 61T446 92V403Q422 425 385 438ZM530 73T567 62T642 50Q817 50 817 253Q817 353 776 402T642 451Q605 451 567 438T506 403V92Q530 73 567 62Z" />
<glyph unicode="&#x445;" glyph-name="uni0445" horiz-adv-x="501" d="M454 0H382L248 202L118 0H46L213 252L46 500H119L254 296L382 500H454L289 246L454 0Z" />
<glyph unicode="&#x446;" glyph-name="uni0446" horiz-adv-x="626" d="M565 -89H505V0H86V500H147V59H425V500H486V59H565V-89Z" />
<glyph unicode="&#x447;" glyph-name="uni0447" horiz-adv-x="520" d="M433 0H373V177Q350 161 312 150T240 138Q142 138 101 184T59 328V500H121V340Q121 292 131 261T171 214T254 197Q283 197 319 208T372 235V500H433V0Z" />
<glyph unicode="&#x448;" glyph-name="uni0448" horiz-adv-x="859" d="M86 0V500H147V60H399V500H460V60H712V500H773V0H86Z" />
<glyph unicode="&#x449;" glyph-name="uni0449" horiz-adv-x="913" d="M852 -89H792V0H86V500H147V59H399V500H460V59H712V500H773V59H852V-89Z" />
<glyph unicode="&#x44a;" glyph-name="uni044A" horiz-adv-x="585" d="M432 279T472 240T513 137Q513 74 472 35T365 -4H172V441H72V500H233V279H366Q432 279 472 240ZM401 55T426 78T452 138Q452 174 427 197T364 220H233V55H364Q401 55 426 78Z" />
<glyph unicode="&#x44b;" glyph-name="uni044B" horiz-adv-x="672" d="M347 279T387 240T427 137Q427 74 387 35T280 -4H87V500H148V279H281Q347 279 387 240ZM586 500V0H527V500H586ZM316 55T341 78T366 138Q366 174 341 197T279 220H148V55H279Q316 55 341 78Z" />
<glyph unicode="&#x44c;" glyph-name="uni044C" horiz-adv-x="500" d="M347 279T387 240T427 137Q427 74 387 35T280 -4H87V500H148V279H281Q347 279 387 240ZM316 55T341 78T366 138Q366 174 341 197T279 220H148V55H279Q316 55 341 78Z" />
<glyph unicode="&#x44d;" glyph-name="uni044D" horiz-adv-x="560" d="M101 479T142 494T229 509Q299 509 358 474T452 380T487 251Q487 180 453 121T359 28T229 -7Q185 -7 144 7T69 48L112 91Q164 53 229 53Q278 53 320 75T389 135T421 221H211V280H421Q416 327
389 365T320 426T229 449Q164 449 111 409L68 452Q101 479 142 494Z" />
<glyph unicode="&#x44e;" glyph-name="uni044E" horiz-adv-x="846" d="M266 343T301 395T393 478T514 508Q584 508 643 474T738 380T773 250Q773 179 738 120T644 27T514 -8Q449 -8 393 22T302 104T259 221H147V0H86V500H147V280H259Q266 343 301 395ZM568 52T614
78T686 150T713 250Q713 304 687 349T614 421T514 448Q460 448 415 422T344 350T317 250Q317 196 343 151T415 79T514 52Q568 52 614 78Z" />
<glyph unicode="&#x44f;" glyph-name="uni044F" horiz-adv-x="530" d="M445 -1H385V221H292L147 0H78L227 225Q174 236 143 271T111 360Q111 422 151 461T258 500H445V-1ZM258 440Q221 440 197 419T172 361Q172 324 196 302T258 280H385V440H258Z" />
<glyph unicode="&#x451;" glyph-name="uni0451" horiz-adv-x="630" d="M400 508T453 478T534 404T563 316Q563 279 540 255T472 231H141Q141 180 168 139T240 74T337 50Q379 50 415 60T481 97L524 54Q458 -8 339 -8Q269 -8 208 24T110 116T73 250Q73 320 107 379T201
473T331 508Q400 508 453 478ZM280 451T238 429T171 370T142 288H449Q472 288 484 300T496 332Q496 364 472 391T410 435T331 451Q280 451 238 429ZM202 580T190 592T178 621Q178 638 190 649T219 661Q236 661 247 650T259 621Q259 604 248 592T219 580Q202 580
190 592ZM410 580T398 592T386 621Q386 638 398 649T427 661Q444 661 455 650T467 621Q467 604 456 592T427 580Q410 580 398 592Z" />
<glyph unicode="&#x1e80;" glyph-name="Wgrave" horiz-adv-x="1066" d="M788 0H719L533 603L347 0H278L44 700H108L313 98L497 700H569L753 98L958 700H1023L788 0ZM493 900L561 775H503L411 900H493Z" />
<glyph unicode="&#x1e81;" glyph-name="wgrave" horiz-adv-x="830" d="M552 0L415 412L278 0H215L46 500H105L246 88L384 500H447L585 88L725 500H785L615 0H552ZM375 700L443 575H385L293 700H375Z" />
<glyph unicode="&#x1e82;" glyph-name="Wacute" horiz-adv-x="1066" d="M788 0H719L533 603L347 0H278L44 700H108L313 98L497 700H569L753 98L958 700H1023L788 0ZM559 775H502L570 900H652L559 775Z" />
<glyph unicode="&#x1e83;" glyph-name="wacute" horiz-adv-x="830" d="M552 0L415 412L278 0H215L46 500H105L246 88L384 500H447L585 88L725 500H785L615 0H552ZM441 575H384L452 700H534L441 575Z" />
<glyph unicode="&#x1e84;" glyph-name="Wdieresis" horiz-adv-x="1066" d="M788 0H719L533 603L347 0H278L44 700H108L313 98L497 700H569L753 98L958 700H1023L788 0ZM412 780T400 792T388 821Q388 838 400 849T429 861Q446 861 457 850T469 821Q469 804 458
792T429 780Q412 780 400 792ZM620 780T608 792T596 821Q596 838 608 849T637 861Q654 861 665 850T677 821Q677 804 666 792T637 780Q620 780 608 792Z" />
<glyph unicode="&#x1e85;" glyph-name="wdieresis" horiz-adv-x="830" d="M552 0L415 412L278 0H215L46 500H105L246 88L384 500H447L585 88L725 500H785L615 0H552ZM294 580T282 592T270 621Q270 638 282 649T311 661Q328 661 339 650T351 621Q351 604 340 592T311
580Q294 580 282 592ZM502 580T490 592T478 621Q478 638 490 649T519 661Q536 661 547 650T559 621Q559 604 548 592T519 580Q502 580 490 592Z" />
<glyph unicode="&#x1ef2;" glyph-name="Ygrave" horiz-adv-x="668" d="M365 294V0H303V294L44 700H112L334 353L557 700H625L365 294ZM294 900L362 775H304L212 900H294Z" />
<glyph unicode="&#x1ef3;" glyph-name="ygrave" horiz-adv-x="580" d="M508 41Q508 -80 454 -134T283 -188Q226 -188 182 -174T97 -128L106 -79Q147 -109 188 -121T283 -134Q370 -134 409 -98T449 27V46Q417 22 376 7T291 -8Q177 -8 123 57T69 258V500H130V258Q130
150 168 100T299 50Q336 50 375 63T446 97V500H508V41ZM249 700L317 575H259L167 700H249Z" />
<glyph unicode="&#x2013;" glyph-name="endash" horiz-adv-x="499" d="M449 239H50V298H449V239Z" />
<glyph unicode="&#x2014;" glyph-name="emdash" horiz-adv-x="653" d="M603 239H50V298H603V239Z" />
<glyph unicode="&#x2018;" glyph-name="quoteleft" horiz-adv-x="182" d="M108 692T97 670Q112 669 121 658T131 631Q131 614 120 602T91 590Q74 590 62 602T50 631Q50 659 68 684T130 709Q108 692 97 670Z" />
<glyph unicode="&#x2019;" glyph-name="quoteright" horiz-adv-x="182" d="M109 709T121 697T133 669Q133 644 116 618T53 591Q78 611 85 628Q71 630 61 641T51 669Q51 686 63 697T92 709Q109 709 121 697Z" />
<glyph unicode="&#x201a;" glyph-name="quotesinglbase" horiz-adv-x="182" d="M109 71T121 59T133 30Q132 1 114 -23T53 -48Q77 -29 86 -10Q71 -8 61 3T51 30Q51 47 63 59T92 71Q109 71 121 59Z" />
<glyph unicode="&#x201c;" glyph-name="quotedblleft" horiz-adv-x="302" d="M107 692T97 671Q112 670 121 659T131 631Q131 615 120 603T91 591Q74 591 62 602T50 631Q50 655 67 682T130 709Q107 692 97 671ZM225 691T217 671Q231 669 241 658T251 631Q251 614
239 603T210 591Q194 591 182 603T170 631Q170 655 187 682T250 709Q225 691 217 671Z" />
<glyph unicode="&#x201d;" glyph-name="quotedblright" horiz-adv-x="305" d="M109 709T121 697T133 669Q133 644 116 618T53 591Q76 608 86 629Q71 631 61 642T51 669Q51 686 63 697T92 709Q109 709 121 697ZM229 709T240 698T252 669Q252 644 235 618T172 591Q194
607 205 629Q190 631 181 642T171 669Q171 686 183 697T212 709Q229 709 240 698Z" />
<glyph unicode="&#x201e;" glyph-name="quotedblbase" horiz-adv-x="302" d="M109 73T121 61T133 32Q133 8 116 -19T53 -46Q74 -30 86 -8Q71 -6 61 5T51 32Q51 49 63 61T92 73Q109 73 121 61ZM228 73T240 61T252 32Q252 8 235 -19T172 -46Q192 -31 205 -8Q190
-6 181 5T171 32Q171 49 183 61T212 73Q228 73 240 61Z" />
<glyph unicode="&#x2020;" glyph-name="dagger" horiz-adv-x="372" d="M217 499H322V440H217V-56H156V440H50V499H156V687H217V499Z" />
<glyph unicode="&#x2021;" glyph-name="daggerdbl" horiz-adv-x="372" d="M217 499H322V440H217V191H322V131H217V-56H156V131H50V191H156V440H50V499H156V687H217V499Z" />
<glyph unicode="&#x2022;" glyph-name="bullet" horiz-adv-x="359" d="M125 172T88 209T50 301Q50 355 87 392T179 430Q214 430 244 413T291 366T309 301Q309 266 292 236T244 189T179 172Q125 172 88 209Z" />
<glyph unicode="&#x2026;" glyph-name="ellipsis" horiz-adv-x="569" d="M108 71T119 60T131 31Q131 14 120 2T91 -10Q74 -10 62 2T50 31Q50 48 62 59T91 71Q108 71 119 60ZM301 71T313 60T325 31Q325 14 313 2T284 -10Q267 -10 256 2T244 31Q244 48 256 59T284
71Q301 71 313 60ZM495 71T507 60T519 31Q519 14 507 2T478 -10Q461 -10 449 2T437 31Q437 47 449 59T478 71Q495 71 507 60Z" />
<glyph unicode="&#x2030;" glyph-name="perthousand" horiz-adv-x="1039" d="M231 709T262 691T311 641T330 573Q330 536 312 505T262 456T194 437Q157 437 126 455T77 505T58 573Q58 610 76 641T126 690T194 709Q231 709 262 691ZM180 0H123L531 700H588L180
0ZM157 658T133 635T109 573Q109 535 133 511T194 486Q231 486 255 510T280 573Q280 610 256 634T194 658Q157 658 133 635ZM557 263T588 245T637 195T656 127Q656 90 638 59T588 10T520 -9Q483 -9 452 9T403 59T384 127Q384 164 402 195T452 244T520 263Q557 263
588 245ZM861 263T892 245T941 195T960 127Q960 90 942 59T892 10T824 -9Q787 -9 756 9T707 59T688 127Q688 164 706 195T756 244T824 263Q861 263 892 245ZM482 213T458 189T434 127Q434 90 458 66T520 41Q558 41 582 65T606 127Q606 165 582 189T520 213Q482
213 458 189ZM787 213T763 189T739 127Q739 90 763 66T824 41Q862 41 886 65T910 127Q910 165 886 189T824 213Q787 213 763 189Z" />
<glyph unicode="&#x2039;" glyph-name="guilsinglleft" horiz-adv-x="265" d="M215 360L96 279L215 200V134L50 252V307L215 426V360Z" />
<glyph unicode="&#x203a;" glyph-name="guilsinglright" horiz-adv-x="265" d="M215 307V252L50 134V200L169 279L50 360V426L215 307Z" />
<glyph unicode="&#x2044;" glyph-name="fraction" horiz-adv-x="478" d="M428 700L113 0H50L365 700H428Z" />
<glyph unicode="&#x20ac;" glyph-name="Euro" horiz-adv-x="858" d="M631 52T677 67T761 112L804 68Q757 31 700 11T581 -9Q499 -9 427 25T304 120T233 257H69L113 301H224Q221 325 221 350Q221 373 224 395H70L116 439H232Q252 516 303 577T426 674T581 709Q643
709 700 689T805 630L762 587Q724 617 678 632T581 648Q478 648 400 591T295 439H728L684 395H286Q283 373 283 350Q283 322 287 301H590L547 257H298Q328 166 405 109T581 52Q631 52 677 67Z" />
<glyph unicode="&#x2122;" glyph-name="trademark" horiz-adv-x="889" d="M349 641H230V294H168V641H50V700H349V641ZM840 294H779V618L614 411L449 618V294H388V700H454L614 497L773 700H840V294Z" />
<glyph unicode="&#x2205;" glyph-name="emptyset" horiz-adv-x="655" d="M556 377T571 336T587 250Q587 179 552 120T458 27T328 -8Q238 -8 168 48L110 -9L69 32L126 90Q99 123 84 164T69 250Q69 320 104 379T198 473T328 508Q373 508 413 493T487 451L543 508L585
466L529 410Q556 377 571 336ZM391 448T328 448Q274 448 229 422T157 350T130 250Q130 184 171 135L442 407Q391 448 328 448ZM262 52T328 52Q382 52 427 78T498 150T525 250Q525 316 484 365L213 93Q262 52 328 52Z" />
<glyph unicode="&#x2212;" glyph-name="minus" horiz-adv-x="538" d="M488 279H50V338H488V279Z" />
<glyph unicode="&#x2248;" glyph-name="approxequal" horiz-adv-x="467" d="M382 311Q360 288 327 288Q295 288 257 311L196 347Q164 365 140 365Q116 365 99 348L50 299V366L85 401Q107 423 139 423Q172 423 210 400L271 364Q303 346 326 346Q349 346 368 364L417
412V345L382 311ZM382 162Q360 140 328 140Q295 140 257 163L196 198Q167 216 141 216Q116 216 99 199L50 150V218L85 253Q108 275 139 275Q172 275 210 252L271 216Q303 198 326 198Q351 198 368 216L417 264V196L382 162Z" />
<glyph unicode="&#x2260;" glyph-name="notequal" horiz-adv-x="538" d="M331 368L284 265H488V206H258L165 0H102L195 206H50V265H222L268 368H50V427H295L385 627H447L357 427H488V368H331Z" />
<glyph unicode="&#x2264;" glyph-name="lessequal" horiz-adv-x="449" d="M386 490L142 345L386 200V128L63 325V366L386 562V490ZM387 59V0H63V59H387Z" />
<glyph unicode="&#x2265;" glyph-name="greaterequal" horiz-adv-x="420" d="M374 366V325L50 128V200L295 345L50 490V562L374 366ZM374 0H50V59H374V0Z" />
<glyph unicode="&#xfb01;" glyph-name="fi" horiz-adv-x="590" d="M322 654H268Q238 654 216 638T193 592V500H312V442H193V0H132V442H50V500H132V592Q132 645 170 676T268 708H322V654ZM459 578T448 589T436 616Q436 632 447 643T475 655Q491 655 502 644T513
616Q513 600 502 589T475 578Q459 578 448 589ZM505 500V0H446V500H505Z" />
<glyph unicode="&#xfb02;" glyph-name="fl" horiz-adv-x="604" d="M322 654H268Q238 654 216 638T193 592V500H312V442H193V0H132V442H50V500H132V592Q132 645 170 676T268 708H322V654ZM522 700V0H463V700H522Z" />
</font>
</defs>
</svg>
